0 Members and 1 Guest are viewing this topic.

Kolkata Bangla Movies | February 06, 2016, 12:47:11 PM
Ami Je Tomari Bengali Movie - 1CD - HDRip[x264 - AAC(2Ch)]

Mr. X

  • Global Moderator
  • Junior Member
  • *****
  • 199
    Posts
Ami Je Tomari Bengali Movie - 1CD - HDRip[x264 - AAC(2Ch)]
« on: February 06, 2016, 12:47:11 PM »
Ami Je Tomari  Bengali Movie - 1CD -
 HDRip[x264 - AAC(2Ch)]
[/size]



Code: You are not allowed to view links. Register or Login
General
Format                                   : Matroska
Format version                           : Version 2
File size                                : 699 MiB
Duration                                 : 2h 34mn
Overall bit rate                         : 632 Kbps

Video
ID                                       : 1
Format                                   : AVC
Format/Info                              : Advanced Video Codec
Format profile                           : [email protected]
Format settings, CABAC                   : Yes
Format settings, ReFrames                : 5 frames
Codec ID                                 : V_MPEG4/ISO/AVC
Duration                                 : 2h 34mn
Bit rate                                 : 550 Kbps
Width                                    : 536 pixels
Height                                   : 392 pixels
Display aspect ratio                     : 4:3
Frame rate mode                          : Constant
Frame rate                               : 25.000 fps
Color space                              : YUV
Chroma subsampling                       : 4:2:0
Bit depth                                : 8 bits
Scan type                                : Progressive
Bits/(Pixel*Frame)                       : 0.105
Stream size                              : 609 MiB (87%)
Default                                  : Yes
Forced                                   : No
Color range                              : Limited
Color primaries                          : BT.709
Transfer characteristics                 : BT.709
Matrix coefficients                      : BT.709

Audio
ID                                       : 2
Format                                   : AAC
Format/Info                              : Advanced Audio Codec
Format profile                           : HE-AAC / LC
Codec ID                                 : A_AAC
Duration                                 : 2h 34mn
Bit rate                                 : 79.8 Kbps
Channel(s)                               : 2 channels
Channel positions                        : Front: L R
Sampling rate                            : 48.0 KHz / 24.0 KHz
Frame rate                               : 23.438 fps (1024 spf)
Compression mode                         : Lossy
Delay relative to video                  : 31ms
Stream size                              : 88.4 MiB (13%)




Thumbnail









File size :- 700 MB


You are not allowed to view links. Register or Login
You are not allowed to view links. Register or Login
You are not allowed to view links. Register or Login
You are not allowed to view links. Register or Login
You are not allowed to view links. Register or Login










 

Related Topics

  Subject / Started by Replies Last post
0 Replies
560 Views
Last post March 02, 2014, 08:15:13 AM
by Pherarim
0 Replies
578 Views
Last post March 03, 2014, 04:55:25 PM
by Pherarim
0 Replies
441 Views
Last post February 03, 2016, 01:01:17 AM
by Mr. X
0 Replies
401 Views
Last post February 03, 2016, 11:29:37 PM
by Mr. X
0 Replies
520 Views
Last post February 06, 2016, 12:59:10 PM
by Mr. X