0 Members and 1 Guest are viewing this topic.

Kolkata Bangla Movies | February 19, 2016, 02:48:04 PM
Sparshaa (Bengali Movie) - 450 MB - HDRip[x264 - AAC(2Ch)]

Mr. X

  • Global Moderator
  • Junior Member
  • *****
  • 199
    Posts
Sparshaa (Bengali Movie) - 450 MB - HDRip[x264 - AAC(2Ch)]
« on: February 19, 2016, 02:48:04 PM »
Sparshaa (Bengali Movie) - 450 MB -
 HDRip[x264 - AAC(2Ch)]
[/size]



Code: You are not allowed to view links. Register or Login
General
Format                                   : Matroska
Format version                           : Version 2
File size                                : 450 MiB
Duration                                 : 2h 15mn
Overall bit rate                         : 466 Kbps

Video
ID                                       : 1
Format                                   : AVC
Format/Info                              : Advanced Video Codec
Format profile                           : [email protected]
Format settings, CABAC                   : Yes
Format settings, ReFrames                : 5 frames
Codec ID                                 : V_MPEG4/ISO/AVC
Duration                                 : 2h 15mn
Bit rate                                 : 400 Kbps
Width                                    : 560 pixels
Height                                   : 288 pixels
Display aspect ratio                     : 1.944
Frame rate mode                          : Constant
Frame rate                               : 25.000 fps
Color space                              : YUV
Chroma subsampling                       : 4:2:0
Bit depth                                : 8 bits
Scan type                                : Progressive
Bits/(Pixel*Frame)                       : 0.099
Stream size                              : 386 MiB (86%)
Default                                  : Yes
Forced                                   : No
Color range                              : Limited
Color primaries                          : BT.709
Transfer characteristics                 : BT.709
Matrix coefficients                      : BT.709

Audio
ID                                       : 2
Format                                   : AAC
Format/Info                              : Advanced Audio Codec
Format profile                           : HE-AAC / LC
Codec ID                                 : A_AAC
Duration                                 : 2h 15mn
Bit rate                                 : 64.0 Kbps
Channel(s)                               : 2 channels
Channel positions                        : Front: L R
Sampling rate                            : 48.0 KHz / 24.0 KHz
Frame rate                               : 23.438 fps (1024 spf)
Compression mode                         : Lossy
Delay relative to video                  : 31ms
Stream size                              : 61.8 MiB (14%)



Thumbnail










File size :- 450 MB


You are not allowed to view links. Register or Login
You are not allowed to view links. Register or Login
You are not allowed to view links. Register or Login
You are not allowed to view links. Register or Login
You are not allowed to view links. Register or Login









 

Related Topics

  Subject / Started by Replies Last post
0 Replies
337 Views
Last post February 17, 2015, 12:11:19 PM
by Pherarim
0 Replies
373 Views
Last post May 04, 2015, 02:51:26 AM
by Pherarim
0 Replies
389 Views
Last post February 03, 2016, 01:06:44 AM
by Mr. X
2 Replies
2806 Views
Last post April 26, 2016, 05:44:32 AM
by KerthHob
0 Replies
573 Views
Last post February 22, 2016, 02:03:51 AM
by Mr. X