0 Members and 1 Guest are viewing this topic.

Kolkata Bangla Movies | August 14, 2017, 04:30:23 PM
Ebar Jombe Moja (Zee Bangla Cinema) - 1CD - DTH Rip[x264 - AAC3(2Ch)]

Mr. X

  • Global Moderator
  • Junior Member
  • *****
  • 199
    Posts
Ebar Jombe Moja (Zee Bangla Cinema) -
 1CD - DTH Rip[x264 - AAC3(2Ch)]





 

Code: You are not allowed to view links. Register or Login
General
Format                                   : Matroska
Format version                           : Version 2
File size                                : 700 MiB
Duration                                 : 2 h 22 min

Video
ID                                       : 1
Format                                   : AVC
Format/Info                              : Advanced Video Codec
Format profile                           : [email protected]
Format settings, CABAC                   : Yes
Format settings, RefFrames               : 4 frames
Codec ID                                 : V_MPEG4/ISO/AVC
Duration                                 : 2 h 22 min
Bit rate                                 : 605 kb/s
Width                                    : 640 pixels
Height                                   : 296 pixels
Display aspect ratio                     : 2.2:1
Frame rate mode                          : Constant
Frame rate                               : 25.000 FPS
Color space                              : YUV
Chroma subsampling                       : 4:2:0
Bit depth                                : 8 bits
Scan type                                : Progressive
Bits/(Pixel*Frame)                       : 0.128
Stream size                              : 616 MiB (88%)

Audio
ID                                       : 2
Format                                   : AAC
Format/Info                              : Advanced Audio Codec
Format profile                           : HE-AAC / LC
Codec ID                                 : A_AAC
Duration                                 : 2 h 22 min
Bit rate                                 : 80.0 kb/s
Channel(s)                               : 2 channels
Channel positions                        : Front: L R
Sampling rate                            : 48.0 kHz / 24.0 kHz
Stream size                              : 81.5 MiB (12%)
Thumbnail







You are not allowed to view links. Register or Login
You are not allowed to view links. Register or Login
You are not allowed to view links. Register or Login
You are not allowed to view links. Register or Login
You are not allowed to view links. Register or Login
You are not allowed to view links. Register or Login
You are not allowed to view links. Register or Login[/url]
You are not allowed to view links. Register or Login



 

Related Topics

  Subject / Started by Replies Last post
0 Replies
825 Views
Last post July 27, 2015, 06:25:43 PM
by Mr. X
0 Replies
662 Views
Last post February 03, 2016, 01:05:15 AM
by Mr. X
0 Replies
2643 Views
Last post February 19, 2016, 02:53:40 PM
by Mr. X
0 Replies
1899 Views
Last post March 01, 2016, 02:13:57 PM
by Mr. X
0 Replies
93 Views
Last post August 03, 2017, 11:29:46 PM
by Mr. X