0 Members and 1 Guest are viewing this topic.

Kolkata Bangla Movies | August 16, 2017, 11:59:58 AM
Dekh Kemon Lage (2017) - 1CD - Scam Rip[x264 - AAC3(2Ch)]

Mr. X

  • Global Moderator
  • Junior Member
  • *****
  • 199
    Posts
Dekh Kemon Lage (2017) - 1CD - Scam Rip[x264 - AAC3(2Ch)]
« on: August 16, 2017, 11:59:58 AM »
Dekh Kemon Lage (2017) - 1CD -
Scam Rip[x264 - AAC3(2Ch)] 






 

Code: You are not allowed to view links. Register or Login
General
Format                                   : Matroska
Format version                           : Version 2
File size                                : 699 MiB
Duration                                 : 2 h 26 min

Video
ID                                       : 1
Format                                   : AVC
Format/Info                              : Advanced Video Codec
Format profile                           : [email protected]
Format settings, CABAC                   : Yes
Format settings, RefFrames               : 16 frames
Codec ID                                 : V_MPEG4/ISO/AVC
Duration                                 : 2 h 26 min
Bit rate                                 : 587 kb/s
Width                                    : 560 pixels
Height                                   : 296 pixels
Display aspect ratio                     : 1.892
Frame rate mode                          : Constant
Frame rate                               : 25.000 FPS
Color space                              : YUV
Chroma subsampling                       : 4:2:0
Bit depth                                : 8 bits
Scan type                                : Progressive
Bits/(Pixel*Frame)                       : 0.142
Stream size                              : 613 MiB (88%)

Audio
ID                                       : 2
Format                                   : AAC
Format/Info                              : Advanced Audio Codec
Format profile                           : HE-AAC / LC
Codec ID                                 : A_AAC
Duration                                 : 2 h 26 min
Bit rate                                 : 80.0 kb/s
Channel(s)                               : 2 channels
Channel positions                        : Front: L R
Sampling rate                            : 48.0 kHz / 24.0 kHz
Stream size                              : 83.5 MiB (12%)
Thumbnail






You are not allowed to view links. Register or Login
You are not allowed to view links. Register or Login
You are not allowed to view links. Register or Login
You are not allowed to view links. Register or Login
You are not allowed to view links. Register or Login
You are not allowed to view links. Register or Login
You are not allowed to view links. Register or Login

 

Related Topics

  Subject / Started by Replies Last post
0 Replies
71 Views
Last post August 04, 2017, 11:33:13 AM
by Mr. X
0 Replies
181 Views
Last post August 18, 2017, 03:54:34 PM
by Mr. X
0 Replies
159 Views
Last post August 20, 2017, 10:42:53 PM
by Mr. X
0 Replies
224 Views
Last post August 20, 2017, 11:57:07 PM
by Mr. X
0 Replies
184 Views
Last post August 23, 2017, 11:41:19 AM
by Mr. X