0 Members and 1 Guest are viewing this topic.

Kolkata Bangla Movies | August 19, 2017, 09:54:51 PM
GAME (Bengali Short Film) - HD Rip [x264 - AAC3(2Ch)] - 451 MB

Mr. X

  • Global Moderator
  • Junior Member
  • *****
  • 199
    Posts
GAME (Bengali Short Film) - HD Rip
[x264 - AAC3(2Ch)] - 451 MB
 




 

Code: You are not allowed to view links. Register or Login
General
Format                                   : Matroska
Format version                           : Version 2
File size                                : 451 MiB
Duration                                 : 1 h 13 min
Overall bit rate                         : 859 kb/s
Video
ID                                       : 1
Format                                   : AVC
Format/Info                              : Advanced Video Codec
Format profile                           : [email protected]
Format settings, CABAC                   : Yes
Format settings, RefFrames               : 4 frames
Codec ID                                 : V_MPEG4/ISO/AVC
Duration                                 : 1 h 13 min
Bit rate                                 : 729 kb/s
Width                                    : 720 pixels
Height                                   : 288 pixels
Display aspect ratio                     : 2.500
Frame rate mode                          : Constant
Frame rate                               : 25.000 FPS
Color space                              : YUV
Chroma subsampling                       : 4:2:0
Bit depth                                : 8 bits
Scan type                                : Progressive
Bits/(Pixel*Frame)                       : 0.141
Stream size                              : 383 MiB (85%)

Audio
ID                                       : 2
Format                                   : AAC
Format/Info                              : Advanced Audio Codec
Format profile                           : LC
Codec ID                                 : A_AAC
Duration                                 : 1 h 13 min
Bit rate                                 : 128 kb/s
Channel(s)                               : 2 channels
Channel positions                        : Front: L R
Sampling rate                            : 48.0 kHz
Stream size                              : 67.3 MiB (15%)

















You are not allowed to view links. Register or Login
You are not allowed to view links. Register or Login
You are not allowed to view links. Register or Login
You are not allowed to view links. Register or Login
You are not allowed to view links. Register or Login
You are not allowed to view links. Register or Login
You are not allowed to view links. Register or Login
[/center]
« Last Edit: August 19, 2017, 10:00:43 PM by Mr. X »

 

Related Topics

  Subject / Started by Replies Last post
0 Replies
94 Views
Last post August 07, 2017, 08:34:27 AM
by Mr. X
0 Replies
110 Views
Last post August 08, 2017, 10:57:44 PM
by Mr. X
0 Replies
131 Views
Last post August 09, 2017, 10:59:08 PM
by Mr. X
0 Replies
105 Views
Last post August 10, 2017, 02:45:55 PM
by Mr. X
0 Replies
148 Views
Last post August 10, 2017, 09:32:10 PM
by Mr. X