0 Members and 1 Guest are viewing this topic.

Kolkata Bangla Movies | August 20, 2017, 10:42:53 PM
Dekh Kemon Lage (2017) Bengali Movie - HDTV Rip - 850 MB - Mpeg

Mr. X

  • Global Moderator
  • Junior Member
  • *****
  • 199
    Posts
Dekh Kemon Lage (2017) Bengali Movie -
HDTV Rip - 850 MB - Mpeg





Code: You are not allowed to view links. Register or Login
General
Format                                   : MPEG-PS
File size                                : 850 MiB
Duration                                 : 2 h 40 min
Overall bit rate mode                    : Variable

Video
ID                                       : 224 (0xE0)
Format                                   : MPEG Video
Format version                           : Version 2
Format profile                           : [email protected]
Format settings, BVOP                    : Yes
Format settings, Matrix                  : Custom
Format settings, GOP                     : M=3, N=18
Duration                                 : 2 h 40 min
Bit rate mode                            : Variable
Bit rate                                 : 636 kb/s
Width                                    : 352 pixels
Height                                   : 288 pixels
Display aspect ratio                     : 4:3
Frame rate                               : 25.000 FPS
Standard                                 : PAL
Color space                              : YUV
Chroma subsampling                       : 4:2:0
Bit depth                                : 8 bits
Scan type                                : Progressive
Stream size                              : 724 MiB (85%)

Audio
ID                                       : 192 (0xC0)
Format                                   : MPEG Audio
Format version                           : Version 1
Format profile                           : Layer 2
Duration                                 : 2 h 40 min
Bit rate mode                            : Constant
Bit rate                                 : 96.0 kb/s
Channel(s)                               : 2 channels
Sampling rate                            : 48.0 kHz
Compression mode                         : Lossy
Stream size                              : 110 MiB (13%)
Thumbnail





You are not allowed to view links. Register or Login
You are not allowed to view links. Register or Login
You are not allowed to view links. Register or Login
You are not allowed to view links. Register or Login
You are not allowed to view links. Register or Login
You are not allowed to view links. Register or Login
You are not allowed to view links. Register or Login
[/center]

 

Related Topics

  Subject / Started by Replies Last post
0 Replies
64 Views
Last post August 04, 2017, 10:10:31 AM
by Mr. X
0 Replies
175 Views
Last post August 05, 2017, 08:40:24 AM
by Mr. X
0 Replies
156 Views
Last post August 16, 2017, 11:59:58 AM
by Mr. X
0 Replies
223 Views
Last post August 20, 2017, 11:57:07 PM
by Mr. X
0 Replies
184 Views
Last post August 23, 2017, 11:41:19 AM
by Mr. X