0 Members and 1 Guest are viewing this topic.

Kolkata Bangla Movies | August 20, 2017, 11:57:07 PM
Dekh Kemon Lage (2017) Bengali Movie - HDTV Rip[x264 - AAC3(5.1Ch) - 850 MB

Mr. X

  • Global Moderator
  • Junior Member
  • *****
  • 199
    Posts
Dekh Kemon Lage (2017) Bengali Movie -
 HDTV Rip[x264 - AAC3(5.1Ch) - 850 MB





Code: You are not allowed to view links. Register or Login
General
Format                                   : Matroska
Format version                           : Version 2
File size                                : 850 MiB
Duration                                 : 2 h 40 min

Video
ID                                       : 1
Format                                   : AVC
Format/Info                              : Advanced Video Codec
Format profile                           : [email protected]
Format settings, CABAC                   : Yes
Format settings, RefFrames               : 4 frames
Codec ID                                 : V_MPEG4/ISO/AVC
Duration                                 : 2 h 40 min
Bit rate                                 : 613 kb/s
Width                                    : 640 pixels
Height                                   : 272 pixels
Display aspect ratio                     : 2.35:1
Frame rate mode                          : Constant
Frame rate                               : 25.000 FPS
Color space                              : YUV
Chroma subsampling                       : 4:2:0
Bit depth                                : 8 bits
Scan type                                : Progressive
Bits/(Pixel*Frame)                       : 0.141
Stream size                              : 702 MiB (83%)

Audio
ID                                       : 2
Format                                   : AAC
Format/Info                              : Advanced Audio Codec
Format profile                           : HE-AACv2 / HE-AAC / LC
Codec ID                                 : A_AAC
Duration                                 : 2 h 40 min
Bit rate                                 : 128 kb/s
Channel(s)                               : 6 channels
Sampling rate                            : 48.0 kHz
Stream size                              : 146 MiB (17%)
Thumbnail






You are not allowed to view links. Register or Login
You are not allowed to view links. Register or Login
You are not allowed to view links. Register or Login
You are not allowed to view links. Register or Login
You are not allowed to view links. Register or Login
You are not allowed to view links. Register or Login
You are not allowed to view links. Register or Login
[/center]
« Last Edit: August 21, 2017, 12:24:37 AM by Mr. X »

 

Related Topics

  Subject / Started by Replies Last post
0 Replies
288 Views
Last post August 05, 2017, 10:11:56 AM
by Mr. X
0 Replies
156 Views
Last post August 16, 2017, 11:59:58 AM
by Mr. X
0 Replies
159 Views
Last post August 20, 2017, 10:42:53 PM
by Mr. X
0 Replies
184 Views
Last post August 23, 2017, 11:41:19 AM
by Mr. X
0 Replies
293 Views
Last post December 13, 2017, 06:32:12 PM
by Mr. X