0 Members and 1 Guest are viewing this topic.

Kolkata Bangla Movies | August 23, 2017, 11:41:19 AM
Dekh Kemon Lage (2017) Bengali Movie - 2CD - HDTV Rip[x264 - AC3(5.1Ch)]

Mr. X

  • Global Moderator
  • Junior Member
  • *****
  • 199
    Posts
Dekh Kemon Lage (2017) Bengali Movie -
2CD - HDTV Rip[x264 - AC3(5.1Ch)]






 

Code: You are not allowed to view links. Register or Login
General
Format                                   : Matroska
Format version                           : Version 2
File size                                : 1.40 GiB
Duration                                 : 2 h 40 min

Video
ID                                       : 1
Format                                   : AVC
Format/Info                              : Advanced Video Codec
Format profile                           : [email protected]
Format settings, CABAC                   : Yes
Format settings, RefFrames               : 4 frames
Codec ID                                 : V_MPEG4/ISO/AVC
Duration                                 : 2 h 40 min
Bit rate                                 : 1 062 kb/s
Width                                    : 720 pixels
Height                                   : 304 pixels
Display aspect ratio                     : 2.35:1
Frame rate mode                          : Constant
Frame rate                               : 25.000 FPS
Color space                              : YUV
Chroma subsampling                       : 4:2:0
Bit depth                                : 8 bits
Scan type                                : Progressive
Bits/(Pixel*Frame)                       : 0.194
Stream size                              : 1.19 GiB (85%)

Audio
ID                                       : 2
Format                                   : AC-3
Format/Info                              : Audio Coding 3
Format settings, Endianness              : Big
Codec ID                                 : A_AC3
Duration                                 : 2 h 40 min
Bit rate mode                            : Constant
Bit rate                                 : 192 kb/s
Channel(s)                               : 6 channels
Channel positions                        : Front: L C R, Side: L R, LFE
Sampling rate                            : 48.0 kHz
Stream size                              : 220 MiB (15%)
Thumbnail







LINKS ARE INTERCHANGEABLE

You are not allowed to view links. Register or Login
You are not allowed to view links. Register or Login
OR
You are not allowed to view links. Register or Login
You are not allowed to view links. Register or Login
OR
You are not allowed to view links. Register or Login
You are not allowed to view links. Register or Login
OR
You are not allowed to view links. Register or Login
You are not allowed to view links. Register or Login
OR
You are not allowed to view links. Register or Login
You are not allowed to view links. Register or Login

 

Related Topics

  Subject / Started by Replies Last post
0 Replies
157 Views
Last post August 16, 2017, 11:59:58 AM
by Mr. X
0 Replies
159 Views
Last post August 20, 2017, 10:42:53 PM
by Mr. X
0 Replies
224 Views
Last post August 20, 2017, 11:57:07 PM
by Mr. X
0 Replies
148 Views
Last post August 25, 2017, 10:08:54 AM
by Mr. X
0 Replies
135 Views
Last post December 14, 2017, 06:39:56 PM
by Mr. X