0 Members and 1 Guest are viewing this topic.

Kolkata Bangla Movies | August 24, 2017, 12:36:16 PM
Lorai - Play to Live (Bengali Movie) - 2CD - HDTV Rip[Mp4 - AC3(2Ch)]

Mr. X

  • Global Moderator
  • Junior Member
  • *****
  • 199
    Posts
Lorai - Play to Live (Bengali Movie) -
2CD - HDTV Rip[Mp4 - AC3(2Ch)]







 
Plot: Sports minister of Westbengal sends an alcoholic retired football player (Prasenjit Chatterjee) to a politically disturbed (by Maoist activities) village of Purulia to setup a football team. The intention was to build a good activity among the poor villagers and turn their attention to football. One day, the coach is kidnapped by the Maoist (leader Parambroto Chatterjee) and rescued later. Coach decides to stay back with the villagers and teach them football, however, the ministry decides to stop the football project and the cold fight begins between the sports minister and the football coach. Sports minister decided to organize a football match between the village team vs Kolkata akadosh. If the village team could perform well government would retain the project. In the match village team perform in a extraordinary way and able to retain the project.
 Actors: Prasenjit Chatterjee, Payel Sarkar, Indrasish Roy, Koushik Kar

Code: You are not allowed to view links. Register or Login
General
Format                                   : MPEG-4
Format profile                           : Base Media
Codec ID                                 : isom (isom)
File size                                : 1.40 GiB
Duration                                 : 3 h 4 min

Video
ID                                       : 1
Format                                   : AVC
Format/Info                              : Advanced Video Codec
Format profile                           : [email protected]
Format settings, CABAC                   : Yes
Format settings, RefFrames               : 4 frames
Codec ID                                 : avc1
Codec ID/Info                            : Advanced Video Coding
Duration                                 : 3 h 4 min
Bit rate                                 : 898 kb/s
Maximum bit rate                         : 5 210 kb/s
Width                                    : 720 pixels
Height                                   : 304 pixels
Display aspect ratio                     : 2.35:1
Frame rate mode                          : Constant
Frame rate                               : 25.000 FPS
Color space                              : YUV
Chroma subsampling                       : 4:2:0
Bit depth                                : 8 bits
Scan type                                : Progressive
Bits/(Pixel*Frame)                       : 0.164
Stream size                              : 1.15 GiB (82%)

Audio
ID                                       : 2
Format                                   : AC-3
Format/Info                              : Audio Coding 3
Format settings, Endianness              : Big
Codec ID                                 : ac-3
Duration                                 : 3 h 4 min
Bit rate mode                            : Constant
Bit rate                                 : 192 kb/s
Maximum bit rate                         : 203 kb/s
Channel(s)                               : 2 channels
Channel positions                        : Front: L R
Sampling rate                            : 48.0 kHz
Stream size                              : 253 MiB (18%)
Thumbnail





LINKS ARE INTERCHANGEABLE

You are not allowed to view links. Register or Login
You are not allowed to view links. Register or Login
OR
You are not allowed to view links. Register or Login
You are not allowed to view links. Register or Login
OR
You are not allowed to view links. Register or Login
You are not allowed to view links. Register or Login
OR
You are not allowed to view links. Register or Login
You are not allowed to view links. Register or Login
OR
You are not allowed to view links. Register or Login
You are not allowed to view links. Register or Login
OR
You are not allowed to view links. Register or Login
You are not allowed to view links. Register or Login
OR
You are not allowed to view links. Register or Login
You are not allowed to view links. Register or Login
« Last Edit: August 24, 2017, 12:38:11 PM by Mr. X »

 

Related Topics

  Subject / Started by Replies Last post
0 Replies
1743 Views
Last post February 19, 2016, 03:01:25 PM
by Mr. X
2 Replies
2760 Views
Last post April 28, 2016, 05:03:39 PM
by TukashKr
0 Replies
184 Views
Last post August 23, 2017, 11:41:19 AM
by Mr. X
0 Replies
148 Views
Last post August 25, 2017, 10:08:54 AM
by Mr. X
0 Replies
135 Views
Last post December 14, 2017, 06:39:56 PM
by Mr. X