0 Members and 1 Guest are viewing this topic.

Kolkata Bangla Movies | August 25, 2017, 10:08:54 AM
ESP - Ekti Rahassayo Galpo (Bengali Movie) - 2CD -HDTV Rip[Mp4 - AC3(5.1Ch)]

Mr. X

  • Global Moderator
  • Junior Member
  • *****
  • 199
    Posts
ESP - Ekti Rahassayo Galpo (Bengali Movie) -
2CD -HDTV Rip[Mp4 - AC3(5.1Ch)]





 

Code: You are not allowed to view links. Register or Login
General
Format                                   : MPEG-4
Format profile                           : Base Media
Codec ID                                 : isom (isom)
File size                                : 1.40 GiB
Duration                                 : 2 h 19 min

Video
ID                                       : 1
Format                                   : AVC
Format/Info                              : Advanced Video Codec
Format profile                           : [email protected]
Format settings, CABAC                   : Yes
Format settings, RefFrames               : 4 frames
Codec ID                                 : avc1
Codec ID/Info                            : Advanced Video Coding
Duration                                 : 2 h 19 min
Bit rate                                 : 1 246 kb/s
Maximum bit rate                         : 8 380 kb/s
Width                                    : 720 pixels
Height                                   : 304 pixels
Display aspect ratio                     : 2.35:1
Frame rate mode                          : Constant
Frame rate                               : 25.000 FPS
Color space                              : YUV
Chroma subsampling                       : 4:2:0
Bit depth                                : 8 bits
Scan type                                : Progressive
Bits/(Pixel*Frame)                       : 0.228
Stream size                              : 1.22 GiB (87%)

Audio
ID                                       : 2
Format                                   : AC-3
Format/Info                              : Audio Coding 3
Format settings, Endianness              : Big
Codec ID                                 : ac-3
Duration                                 : 2 h 19 min
Bit rate mode                            : Constant
Bit rate                                 : 192 kb/s
Maximum bit rate                         : 203 kb/s
Channel(s)                               : 6 channels
Channel positions                        : Front: L C R, Side: L R, LFE
Sampling rate                            : 48.0 kHz
Stream size                              : 192 MiB (13%)

LINKS ARE INTERCHANGEABLE
You are not allowed to view links. Register or Login
You are not allowed to view links. Register or Login
OR
You are not allowed to view links. Register or Login[/b][/url]
You are not allowed to view links. Register or Login[/b][/url]
OR
You are not allowed to view links. Register or Login
You are not allowed to view links. Register or Login
OR
You are not allowed to view links. Register or Login
You are not allowed to view links. Register or Login
OR
You are not allowed to view links. Register or Login
You are not allowed to view links. Register or Login
OR
You are not allowed to view links. Register or Login
You are not allowed to view links. Register or Login
OR
You are not allowed to view links. Register or Login
You are not allowed to view links. Register or Login
OR
You are not allowed to view links. Register or Login
You are not allowed to view links. Register or Login


 

Related Topics

  Subject / Started by Replies Last post
0 Replies
184 Views
Last post August 23, 2017, 11:41:19 AM
by Mr. X
0 Replies
148 Views
Last post August 24, 2017, 12:36:16 PM
by Mr. X
0 Replies
197 Views
Last post August 27, 2017, 01:14:56 PM
by Mr. X
0 Replies
192 Views
Last post August 31, 2017, 05:39:59 PM
by Mr. X
0 Replies
135 Views
Last post December 14, 2017, 06:39:56 PM
by Mr. X