0 Members and 1 Guest are viewing this topic.

Kolkata Bangla Movies | August 26, 2017, 01:52:58 PM
Deep (Part 1 & Part 2)Bengali Short Film - HD Rip[Mp4 - AAC3(2Ch)]- 350 MB

Mr. X

  • Global Moderator
  • Junior Member
  • *****
  • 199
    Posts
Deep (Part 1 & Part 2)Bengali Short Film -
HD Rip[Mp4 - AAC3(2Ch)]- 350 MB





 

Code: You are not allowed to view links. Register or Login
General
Format                                   : MPEG-4
Format profile                           : Base Media
Codec ID                                 : isom (isom)
File size                                : 350 MiB
Duration                                 : 52 min 1 s

Video
ID                                       : 1
Format                                   : AVC
Format/Info                              : Advanced Video Codec
Format profile                           : [email protected]
Format settings, CABAC                   : Yes
Format settings, RefFrames               : 4 frames
Codec ID                                 : avc1
Codec ID/Info                            : Advanced Video Coding
Duration                                 : 52 min 1 s
Bit rate                                 : 811 kb/s
Maximum bit rate                         : 2 898 kb/s
Width                                    : 720 pixels
Height                                   : 320 pixels
Display aspect ratio                     : 2.25:1
Frame rate mode                          : Constant
Frame rate                               : 25.000 FPS
Color space                              : YUV
Chroma subsampling                       : 4:2:0
Bit depth                                : 8 bits
Scan type                                : Progressive
Bits/(Pixel*Frame)                       : 0.141
Stream size                              : 302 MiB (86%)

Audio
ID                                       : 2
Format                                   : AAC
Format/Info                              : Advanced Audio Codec
Format profile                           : LC
Codec ID                                 : 40
Duration                                 : 52 min 1 s
Bit rate mode                            : Variable
Bit rate                                 : 128 kb/s
Maximum bit rate                         : 133 kb/s
Channel(s)                               : 2 channels
Channel positions                        : Front: L R
Sampling rate                            : 48.0 kHz
Stream size                              : 47.6 MiB (14%)















You are not allowed to view links. Register or Login
You are not allowed to view links. Register or Login
You are not allowed to view links. Register or Login
You are not allowed to view links. Register or Login
You are not allowed to view links. Register or Login
You are not allowed to view links. Register or Login
You are not allowed to view links. Register or Login
You are not allowed to view links. Register or Login

« Last Edit: August 26, 2017, 01:55:27 PM by Mr. X »

 

Related Topics

  Subject / Started by Replies Last post
0 Replies
94 Views
Last post August 07, 2017, 08:34:27 AM
by Mr. X
0 Replies
110 Views
Last post August 08, 2017, 10:57:44 PM
by Mr. X
0 Replies
105 Views
Last post August 10, 2017, 02:45:55 PM
by Mr. X
0 Replies
148 Views
Last post August 10, 2017, 09:32:10 PM
by Mr. X
0 Replies
190 Views
Last post August 19, 2017, 09:54:51 PM
by Mr. X