0 Members and 1 Guest are viewing this topic.

Kolkata Bangla Movies | August 27, 2017, 01:14:56 PM
Nayikar Mato (2017) Zee Bangla Cinema - 2CD - HDTV Rip[Mp4 - AAC3(5.1Ch)]

Mr. X

  • Global Moderator
  • Junior Member
  • *****
  • 199
    Posts
Nayikar Mato (2017) Zee Bangla Cinema -
2CD - HDTV Rip[Mp4 - AAC3(5.1Ch)]







 

Code: You are not allowed to view links. Register or Login
General
Format                                   : MPEG-4
Format profile                           : Base Media
Codec ID                                 : isom (isom)
File size                                : 1.40 GiB
Duration                                 : 2 h 22 min

Video
ID                                       : 1
Format                                   : AVC
Format/Info                              : Advanced Video Codec
Format profile                           : [email protected]
Format settings, CABAC                   : Yes
Format settings, RefFrames               : 4 frames
Codec ID                                 : avc1
Codec ID/Info                            : Advanced Video Coding
Duration                                 : 2 h 22 min
Bit rate                                 : 1 283 kb/s
Maximum bit rate                         : 6 316 kb/s
Width                                    : 720 pixels
Height                                   : 304 pixels
Display aspect ratio                     : 2.35:1
Frame rate mode                          : Constant
Frame rate                               : 25.000 FPS
Color space                              : YUV
Chroma subsampling                       : 4:2:0
Bit depth                                : 8 bits
Scan type                                : Progressive
Bits/(Pixel*Frame)                       : 0.234
Stream size                              : 1.28 GiB (91%)

Audio
ID                                       : 2
Format                                   : AAC
Format/Info                              : Advanced Audio Codec
Format profile                           : HE-AAC / LC
Codec ID                                 : 40
Duration                                 : 2 h 22 min
Bit rate mode                            : Variable
Bit rate                                 : 128 kb/s
Maximum bit rate                         : 138 kb/s
Channel(s)                               : 6 channels
Channel positions                        : Front: L C R, Side: L R, LFE
Sampling rate                            : 48.0 kHz
Stream size                              : 130 MiB (9%)
Thumbnail






LINKS ARE INTERCHANGEABLE

You are not allowed to view links. Register or Login
You are not allowed to view links. Register or Login
OR
You are not allowed to view links. Register or Login
You are not allowed to view links. Register or Login
OR
You are not allowed to view links. Register or Login
You are not allowed to view links. Register or Login
OR
You are not allowed to view links. Register or Login
You are not allowed to view links. Register or Login
OR
You are not allowed to view links. Register or Login
You are not allowed to view links. Register or Login
OR
You are not allowed to view links. Register or Login
You are not allowed to view links. Register or Login
OR
You are not allowed to view links. Register or Login
You are not allowed to view links. Register or Login
OR
You are not allowed to view links. Register or Login
You are not allowed to view links. Register or Login


 

Related Topics

  Subject / Started by Replies Last post
0 Replies
102 Views
Last post August 03, 2017, 11:01:10 PM
by Mr. X
0 Replies
93 Views
Last post August 03, 2017, 11:29:46 PM
by Mr. X
0 Replies
60 Views
Last post August 04, 2017, 10:06:43 AM
by Mr. X
0 Replies
187 Views
Last post August 07, 2017, 08:30:29 PM
by Mr. X
0 Replies
191 Views
Last post August 31, 2017, 05:39:59 PM
by Mr. X