0 Members and 1 Guest are viewing this topic.

Kolkata Bangla Movies | August 28, 2017, 04:29:36 PM
Choclate (Bengali Movie) - 1CD - N/R DvD Rip[x264 - AAC3(2Ch)]

Mr. X

  • Global Moderator
  • Junior Member
  • *****
  • 199
    Posts
Choclate (Bengali Movie) - 1CD -
N/R DvD Rip[x264 - AAC3(2Ch)]







Code: You are not allowed to view links. Register or Login
General
Format                                   : Matroska
Format version                           : Version 2
File size                                : 700 MiB
Duration                                 : 2 h 12 min

Video
ID                                       : 1
Format                                   : AVC
Format/Info                              : Advanced Video Codec
Format profile                           : [email protected]
Format settings, CABAC                   : Yes
Format settings, RefFrames               : 4 frames
Codec ID                                 : V_MPEG4/ISO/AVC
Duration                                 : 2 h 12 min
Bit rate                                 : 608 kb/s
Width                                    : 640 pixels
Height                                   : 272 pixels
Display aspect ratio                     : 2.35:1
Frame rate mode                          : Constant
Frame rate                               : 25.000 FPS
Color space                              : YUV
Chroma subsampling                       : 4:2:0
Bit depth                                : 8 bits
Scan type                                : Progressive
Bits/(Pixel*Frame)                       : 0.140
Stream size                              : 577 MiB (82%)

Audio
ID                                       : 2
Format                                   : AAC
Format/Info                              : Advanced Audio Codec
Format profile                           : LC
Codec ID                                 : A_AAC
Duration                                 : 2 h 12 min
Bit rate                                 : 128 kb/s
Channel(s)                               : 2 channels
Channel positions                        : Front: L R
Sampling rate                            : 48.0 kHz
Stream size                              : 121 MiB (17%)

Thumbnail






You are not allowed to view links. Register or Login
You are not allowed to view links. Register or Login
You are not allowed to view links. Register or Login
You are not allowed to view links. Register or Login
You are not allowed to view links. Register or Login
You are not allowed to view links. Register or Login
You are not allowed to view links. Register or Login

 

Related Topics

  Subject / Started by Replies Last post
0 Replies
60 Views
Last post August 04, 2017, 09:50:35 AM
by Mr. X
0 Replies
71 Views
Last post August 04, 2017, 11:33:13 AM
by Mr. X
0 Replies
84 Views
Last post August 04, 2017, 12:41:48 PM
by Mr. X
0 Replies
111 Views
Last post August 04, 2017, 03:48:24 PM
by Mr. X
0 Replies
126 Views
Last post December 15, 2017, 12:13:17 PM
by Mr. X