0 Members and 1 Guest are viewing this topic.

Kolkata Bangla Movies | August 30, 2017, 07:24:35 AM
Manihara(Bengali Movie) - 1CD - HDRip[x264 - AAC3(2Ch)]

Mr. X

  • Global Moderator
  • Junior Member
  • *****
  • 199
    Posts
Manihara(Bengali Movie) - 1CD - HDRip[x264 - AAC3(2Ch)]
« on: August 30, 2017, 07:24:35 AM »
Manihara(Bengali Movie) - 1CD -
HDRip[x264 - AAC3(2Ch)]






 

Code: You are not allowed to view links. Register or Login
General
Format                                   : Matroska
Format version                           : Version 2
File size                                : 700 MiB
Duration                                 : 2 h 36 min

Video
ID                                       : 1
Format                                   : AVC
Format/Info                              : Advanced Video Codec
Format profile                           : [email protected]
Format settings, CABAC                   : Yes
Format settings, RefFrames               : 4 frames
Codec ID                                 : V_MPEG4/ISO/AVC
Duration                                 : 2 h 36 min
Bit rate                                 : 493 kb/s
Width                                    : 640 pixels
Height                                   : 272 pixels
Display aspect ratio                     : 2.35:1
Frame rate mode                          : Constant
Frame rate                               : 25.000 FPS
Color space                              : YUV
Chroma subsampling                       : 4:2:0
Bit depth                                : 8 bits
Scan type                                : Progressive
Bits/(Pixel*Frame)                       : 0.113
Stream size                              : 553 MiB (79%)

Audio
ID                                       : 2
Format                                   : AAC
Format/Info                              : Advanced Audio Codec
Format profile                           : LC
Codec ID                                 : A_AAC
Duration                                 : 2 h 36 min
Bit rate                                 : 128 kb/s
Channel(s)                               : 2 channels
Channel positions                        : Front: L R
Sampling rate                            : 48.0 kHz
Stream size                              : 144 MiB (21%)
Thumbnail






You are not allowed to view links. Register or Login
You are not allowed to view links. Register or Login
You are not allowed to view links. Register or Login
You are not allowed to view links. Register or Login
You are not allowed to view links. Register or Login
You are not allowed to view links. Register or Login
You are not allowed to view links. Register or Login
You are not allowed to view links. Register or Login
« Last Edit: August 30, 2017, 07:26:39 AM by Mr. X »

 

Related Topics

  Subject / Started by Replies Last post
0 Replies
549 Views
Last post July 14, 2015, 01:10:16 AM
by Mr. X
0 Replies
622 Views
Last post July 14, 2015, 11:52:13 PM
by ąþɦɨƙ
0 Replies
63 Views
Last post August 04, 2017, 09:50:35 AM
by Mr. X
0 Replies
113 Views
Last post August 04, 2017, 03:48:24 PM
by Mr. X
0 Replies
173 Views
Last post August 28, 2017, 04:29:36 PM
by Mr. X