0 Members and 1 Guest are viewing this topic.

Kolkata Bangla Movies | September 05, 2017, 12:04:01 AM
Ami Je Ke Tomar (2017) Bengali Movie - Pre DvDScr Rip [x264 - AAC3(2Ch)] - 850 M

Mr. X

  • Global Moderator
  • Junior Member
  • *****
  • 199
    Posts
Ami Je Ke Tomar (2017) Bengali Movie - Pre DvDScr Rip
[x264 - AAC3(2Ch)] - 850 MB







 

Code: You are not allowed to view links. Register or Login
General
Format                                   : Matroska
Format version                           : Version 2
File size                                : 850 MiB
Duration                                 : 2 h 43 min

Video
ID                                       : 1
Format                                   : AVC
Format/Info                              : Advanced Video Codec
Format profile                           : [email protected]
Format settings, CABAC                   : Yes
Format settings, RefFrames               : 4 frames
Codec ID                                 : V_MPEG4/ISO/AVC
Duration                                 : 2 h 43 min
Bit rate                                 : 647 kb/s
Width                                    : 720 pixels
Height                                   : 368 pixels
Display aspect ratio                     : 1.957
Frame rate mode                          : Constant
Frame rate                               : 25.000 FPS
Color space                              : YUV
Chroma subsampling                       : 4:2:0
Bit depth                                : 8 bits
Scan type                                : Progressive
Bits/(Pixel*Frame)                       : 0.098
Stream size                              : 755 MiB (89%)

Audio
ID                                       : 2
Format                                   : AAC
Format/Info                              : Advanced Audio Codec
Format profile                           : HE-AAC / LC
Codec ID                                 : A_AAC
Duration                                 : 2 h 43 min
Bit rate                                 : 80.0 kb/s
Channel(s)                               : 2 channels
Channel positions                        : Front: L R
Sampling rate                            : 48.0 kHz
Stream size                              : 93.3 MiB (11%)
Thumbnail





You are not allowed to view links. Register or Login
You are not allowed to view links. Register or Login
You are not allowed to view links. Register or Login
You are not allowed to view links. Register or Login
You are not allowed to view links. Register or Login
You are not allowed to view links. Register or Login
You are not allowed to view links. Register or Login

 

Related Topics

  Subject / Started by Replies Last post
0 Replies
140 Views
Last post August 04, 2017, 12:50:42 PM
by Mr. X
0 Replies
114 Views
Last post August 04, 2017, 12:54:48 PM
by Mr. X
0 Replies
148 Views
Last post August 04, 2017, 12:59:38 PM
by Mr. X
0 Replies
154 Views
Last post August 04, 2017, 01:07:53 PM
by Mr. X
0 Replies
147 Views
Last post August 04, 2017, 09:28:43 PM
by Mr. X