0 Members and 1 Guest are viewing this topic.

Bangladeshi Movies | September 17, 2017, 05:39:05 AM
Chaamp (2017) Bengali - Untouched - SDTV - H264 - AAC-DDR

wroser

  • Ex-Staff
  • V.I.P
  • *****
  • 1952
    Posts
Chaamp (2017) Bengali - Untouched - SDTV - H264 - AAC-DDR
« on: September 17, 2017, 05:39:05 AM »



Code: You are not allowed to view links. Register or Login
General
Complete name               : Chaamp (2017) Untouched SDTV H264 AAC-DDR.mp4
Format                      : MPEG-4
Format profile              : Base Media
Codec ID                    : isom (isom/iso2/avc1/mp41)
File size                   : 929 MiB
Duration                    : 2 h 28 min
Overall bit rate            : 877 kb/s
Writing application         : Lavf54.63.104

Video
ID                          : 1
Format                      : AVC
Format/Info                 : Advanced Video Codec
Format profile              : [email protected]
Format settings, CABAC      : Yes
Format settings, ReFrames   : 2 frames
Codec ID                    : avc1
Codec ID/Info               : Advanced Video Coding
Duration                    : 2 h 28 min
Bit rate                    : 808 kb/s
Width                       : 640 pixels
Height                      : 480 pixels
Display aspect ratio        : 4:3
Original display aspect rat : 4:3
Frame rate mode             : Constant
Frame rate                  : 25.000 FPS
Color space                 : YUV
Chroma subsampling          : 4:2:0
Bit depth                   : 8 bits
Scan type                   : Progressive
Bits/(Pixel*Frame)          : 0.105
Stream size                 : 856 MiB (92%)

Audio
ID                          : 2
Format                      : AAC
Format/Info                 : Advanced Audio Codec
Format profile              : LC
Codec ID                    : 40
Duration                    : 2 h 28 min
Duration_LastFrame          : -21 ms
Bit rate mode               : Constant
Bit rate                    : 64.0 kb/s
Channel(s)                  : 2 channels
Channel positions           : Front: L R
Sampling rate               : 48.0 kHz
Frame rate                  : 46.875 FPS (1024 spf)
Compression mode            : Lossy
Stream size                 : 67.8 MiB (7%)
Language                    : Bengali
Default                     : Yes











  SINGLE DIRECT FAST LINKS   
Code: You are not allowed to view links. Register or Login
http://www.heroupload.com/87abc86952d16b49/Chaamp_(2017)_Untouched_SDTV_H264_AAC-DDR.mp4
Code: You are not allowed to view links. Register or Login
http://filefloater.com/5NT/Chaamp_(2017)_Untouched_SDTV_H264_AAC-DDR.mp4

 

Related Topics

  Subject / Started by Replies Last post
0 Replies
99 Views
Last post July 24, 2017, 08:02:02 AM
by wroser
0 Replies
108 Views
Last post August 25, 2017, 10:11:48 PM
by wroser
0 Replies
98 Views
Last post September 06, 2017, 07:20:26 PM
by wroser
0 Replies
189 Views
Last post September 06, 2017, 07:23:39 PM
by wroser
0 Replies
134 Views
Last post September 11, 2017, 12:03:42 AM
by wroser