0 Members and 1 Guest are viewing this topic.

High Resolution English Movies | December 01, 2017, 10:05:49 PM
A Bad Idea Gone Wrong (2017) 1080p WEB-DL DD5.1 H264-FGT

wroser

  • Ex-Staff
  • V.I.P
  • *****
  • 1952
    Posts
A Bad Idea Gone Wrong (2017) 1080p WEB-DL DD5.1 H264-FGT
« on: December 01, 2017, 10:05:49 PM »




Code: You are not allowed to view links. Register or Login
http://imdb.com/title/tt5212918/

Video
ID                                       : 1
Format                                   : AVC
Format/Info                              : Advanced Video Codec
Format profile                           : [email protected]
Format settings                          : CABAC / 4 Ref Frames
Format settings, CABAC                   : Yes
Format settings, ReFrames                : 4 frames
Codec ID                                 : V_MPEG4/ISO/AVC
Duration                                 : 1 h 21 min
Bit rate                                 : 5 113 kb/s
Width                                    : 1 920 pixels
Height                                   : 1 080 pixels
Display aspect ratio                     : 16:9
Frame rate mode                          : Constant
Frame rate                               : 23.976 (24000/1001) FPS
Color space                              : YUV
Chroma subsampling                       : 4:2:0
Bit depth                                : 8 bits
Scan type                                : Progressive
Bits/(Pixel*Frame)                       : 0.103
Stream size                              : 2.90 GiB (91%)
Title                                    : A.Bad.Idea.Gone.Wrong.2017.1080p.WEB-DL.DD5.1.H264-FGT
Language                                 : English
Default                                  : Yes
Forced                                   : No
Color range                              : Limited
Color primaries                          : BT.709
Transfer characteristics                 : BT.709
Matrix coefficients                      : BT.709

Audio
ID                                       : 2
Format                                   : AC-3
Format/Info                              : Audio Coding 3
Codec ID                                 : A_AC3
Duration                                 : 1 h 21 min
Bit rate mode                            : Constant
Bit rate                                 : 384 kb/s
Channel(s)                               : 6 channels
Channel positions                        : Front: L C R, Side: L R, LFE
Sampling rate                            : 48.0 kHz
Frame rate                               : 31.250 FPS (1536 SPF)
Bit depth                                : 16 bits
Compression mode                         : Lossy
Delay relative to video                  : -42 ms
Stream size                              : 223 MiB (7%)
Title                                    : A.Bad.Idea.Gone.Wrong.2017.1080p.WEB-DL.DD5.1.H264-FGT
Language                                 : English
Service kind                             : Complete Main
Default                                  : Yes
Forced                                   : No

Text
ID                                       : 3
Format                                   : UTF-8
Codec ID                                 : S_TEXT/UTF8
Codec ID/Info                            : UTF-8 Plain Text
Language                                 : English
Default                                  : Yes
Forced                                   : No

Menu
00:00:00.000                             : en:1
00:13:18.298                             : en:2
00:24:42.357                             : en:3
00:34:38.161                             : en:4
00:44:51.899                             : en:5
00:53:22.618                             : en:6
01:06:32.824                             : en:7
01:18:28.539                             : en:8




SINGLE DIRECT FAST LINKS


Code: You are not allowed to view links. Register or Login
http://www.heroupload.com/f871bc078f06aba8/A.Bad.Idea.Gone.Wrong.2017.1080p.WEB-DL.DD5.1.H264-FGT.mkv
1GB LINKS

Code: You are not allowed to view links. Register or Login
http://www.heroupload.com/a4368c8021473863/A.Bad.Idea.Gone.Wrong.2017.1080p.WEB-DL.DD5.1.H264-FGT.part1.rar
http://www.heroupload.com/3730a83b8f1ddc14/A.Bad.Idea.Gone.Wrong.2017.1080p.WEB-DL.DD5.1.H264-FGT.part2.rar
http://www.heroupload.com/a69b2effc8dbe7c9/A.Bad.Idea.Gone.Wrong.2017.1080p.WEB-DL.DD5.1.H264-FGT.part3.rar
http://www.heroupload.com/45e8a762b632f2d0/A.Bad.Idea.Gone.Wrong.2017.1080p.WEB-DL.DD5.1.H264-FGT.part4.rar

 

Related Topics

  Subject / Started by Replies Last post
0 Replies
53 Views
Last post October 21, 2017, 08:34:46 PM
by wroser
0 Replies
52 Views
Last post October 21, 2017, 08:37:49 PM
by wroser
0 Replies
42 Views
Last post October 21, 2017, 08:42:59 PM
by wroser
0 Replies
55 Views
Last post October 21, 2017, 08:45:06 PM
by wroser
0 Replies
84 Views
Last post October 24, 2017, 08:25:49 PM
by wroser