0 Members and 1 Guest are viewing this topic.

High Resolution English Movies | December 01, 2017, 10:08:30 PM
Alien Invasion: S.U.M.1 (2017) 1080p WEB-DL DD5.1 H264-FGT

wroser

  • Ex-Staff
  • V.I.P
  • *****
  • 1952
    Posts
Alien Invasion: S.U.M.1 (2017) 1080p WEB-DL DD5.1 H264-FGT
« on: December 01, 2017, 10:08:30 PM »





Code: You are not allowed to view links. Register or Login
http://imdb.com/title/tt4279116/

Video
ID                                       : 1
Format                                   : AVC
Format/Info                              : Advanced Video Codec
Format profile                           : [email protected]
Format settings                          : CABAC / 5 Ref Frames
Format settings, CABAC                   : Yes
Format settings, ReFrames                : 5 frames
Codec ID                                 : V_MPEG4/ISO/AVC
Duration                                 : 1 h 35 min
Bit rate                                 : 4 466 kb/s
Width                                    : 1 916 pixels
Height                                   : 800 pixels
Display aspect ratio                     : 2.40:1
Frame rate mode                          : Constant
Frame rate                               : 23.976 (24000/1001) FPS
Color space                              : YUV
Chroma subsampling                       : 4:2:0
Bit depth                                : 8 bits
Scan type                                : Progressive
Bits/(Pixel*Frame)                       : 0.122
Stream size                              : 2.97 GiB (90%)
Title                                    : Alien.Invasion.S.U.M.1.2017.1080p.WEB-DL.DD5.1.H264-FGT
Language                                 : English
Default                                  : Yes
Forced                                   : No
Color range                              : Limited
Color primaries                          : BT.709
Transfer characteristics                 : BT.709
Matrix coefficients                      : BT.709

Audio
ID                                       : 2
Format                                   : AC-3
Format/Info                              : Audio Coding 3
Codec ID                                 : A_AC3
Duration                                 : 1 h 35 min
Bit rate mode                            : Constant
Bit rate                                 : 384 kb/s
Channel(s)                               : 6 channels
Channel positions                        : Front: L C R, Side: L R, LFE
Sampling rate                            : 48.0 kHz
Frame rate                               : 31.250 FPS (1536 SPF)
Bit depth                                : 16 bits
Compression mode                         : Lossy
Delay relative to video                  : -42 ms
Stream size                              : 262 MiB (8%)
Title                                    : Alien.Invasion.S.U.M.1.2017.1080p.WEB-DL.DD5.1.H264-FGT
Language                                 : English
Service kind                             : Complete Main
Default                                  : Yes
Forced                                   : No

Text
ID                                       : 3
Format                                   : UTF-8
Codec ID                                 : S_TEXT/UTF8
Codec ID/Info                            : UTF-8 Plain Text
Language                                 : English
Default                                  : Yes
Forced                                   : No

Menu
00:00:00.000                             : en:Chapter 1
00:10:06.000                             : en:Chapter 2
00:19:26.000                             : en:Chapter 3
00:27:32.000                             : en:Chapter 4
00:35:26.000                             : en:Chapter 5
00:42:01.000                             : en:Chapter 6
00:51:58.000                             : en:Chapter 7
01:02:55.000                             : en:Chapter 8
01:10:48.000                             : en:Chapter 9
01:19:23.000                             : en:Chapter 10
01:25:24.000                             : en:Chapter 11



SINGLE DIRECT FAST LINKS 

Code: You are not allowed to view links. Register or Login
http://www.heroupload.com/6a6bdd9e6d89fe5b/Alien.Invasion.S.U.M.1.2017.1080p.WEB-DL.DD5.1.H264-FGT.mkv
  1GB LINKS


Code: You are not allowed to view links. Register or Login
http://www.heroupload.com/3ec1de2aeca14ade/Alien.Invasion.S.U.M.1.2017.1080p.WEB-DL.DD5.1.H264-FGT.part1.rar
http://www.heroupload.com/51888a6f44e4aece/Alien.Invasion.S.U.M.1.2017.1080p.WEB-DL.DD5.1.H264-FGT.part2.rar
http://www.heroupload.com/373b97d7c47f33ab/Alien.Invasion.S.U.M.1.2017.1080p.WEB-DL.DD5.1.H264-FGT.part3.rar
http://www.heroupload.com/54d5363648f5a691/Alien.Invasion.S.U.M.1.2017.1080p.WEB-DL.DD5.1.H264-FGT.part4.rar


 

Related Topics

  Subject / Started by Replies Last post
0 Replies
50 Views
Last post October 21, 2017, 08:34:46 PM
by wroser
0 Replies
47 Views
Last post October 21, 2017, 08:37:49 PM
by wroser
0 Replies
53 Views
Last post October 21, 2017, 08:45:06 PM
by wroser
0 Replies
83 Views
Last post October 24, 2017, 08:25:49 PM
by wroser
0 Replies
42 Views
Last post November 04, 2017, 05:06:18 AM
by wroser