0 Members and 1 Guest are viewing this topic.

High Resolution English Movies | December 01, 2017, 10:11:08 PM
Love Beats Rhymes (2017) 1080p WEB-DL DD5.1 H264-FGT

wroser

  • Ex-Staff
  • V.I.P
  • *****
  • 1952
    Posts
Love Beats Rhymes (2017) 1080p WEB-DL DD5.1 H264-FGT
« on: December 01, 2017, 10:11:08 PM »





Code: You are not allowed to view links. Register or Login
http://imdb.com/title/tt4686108/

Video
ID                                       : 1
Format                                   : AVC
Format/Info                              : Advanced Video Codec
Format profile                           : [email protected]
Format settings                          : CABAC / 5 Ref Frames
Format settings, CABAC                   : Yes
Format settings, ReFrames                : 5 frames
Codec ID                                 : V_MPEG4/ISO/AVC
Duration                                 : 1 h 45 min
Bit rate                                 : 4 469 kb/s
Width                                    : 1 912 pixels
Height                                   : 792 pixels
Display aspect ratio                     : 2.40:1
Frame rate mode                          : Constant
Frame rate                               : 23.976 (24000/1001) FPS
Color space                              : YUV
Chroma subsampling                       : 4:2:0
Bit depth                                : 8 bits
Scan type                                : Progressive
Bits/(Pixel*Frame)                       : 0.123
Stream size                              : 3.30 GiB (90%)
Title                                    : Love.Beats.Rhymes.2017.1080p.WEB-DL.DD5.1.H264-FGT
Language                                 : English
Default                                  : Yes
Forced                                   : No
Color range                              : Limited
Color primaries                          : BT.709
Transfer characteristics                 : BT.709
Matrix coefficients                      : BT.709

Audio
ID                                       : 2
Format                                   : AC-3
Format/Info                              : Audio Coding 3
Codec ID                                 : A_AC3
Duration                                 : 1 h 45 min
Bit rate mode                            : Constant
Bit rate                                 : 384 kb/s
Channel(s)                               : 6 channels
Channel positions                        : Front: L C R, Side: L R, LFE
Sampling rate                            : 48.0 kHz
Frame rate                               : 31.250 FPS (1536 SPF)
Bit depth                                : 16 bits
Compression mode                         : Lossy
Delay relative to video                  : -42 ms
Stream size                              : 290 MiB (8%)
Title                                    : Love.Beats.Rhymes.2017.1080p.WEB-DL.DD5.1.H264-FGT
Language                                 : English
Service kind                             : Complete Main
Default                                  : Yes
Forced                                   : No

Text
ID                                       : 3
Format                                   : UTF-8
Codec ID                                 : S_TEXT/UTF8
Codec ID/Info                            : UTF-8 Plain Text
Language                                 : English
Default                                  : Yes
Forced                                   : No

Menu
00:00:00.000                             : en:1
00:00:56.000                             : en:2
00:10:29.000                             : en:3
00:22:15.000                             : en:4
00:34:06.000                             : en:5
00:45:54.000                             : en:6
00:55:49.000                             : en:7
01:06:27.000                             : en:8
01:18:20.000                             : en:9
01:29:35.000                             : en:10
01:39:49.000                             : en:11



SINGLE DIRECT FAST LINKS 

Code: You are not allowed to view links. Register or Login
http://www.heroupload.com/c60e155cbb81e610/Love.Beats.Rhymes.2017.1080p.WEB-DL.DD5.1.H264-FGT.mkv
  1GB LINKS


Code: You are not allowed to view links. Register or Login
http://www.heroupload.com/149f775b4f5e4117/Love.Beats.Rhymes.2017.1080p.WEB-DL.DD5.1.H264-FGT.part1.rar
http://www.heroupload.com/e73b6303a3e991c6/Love.Beats.Rhymes.2017.1080p.WEB-DL.DD5.1.H264-FGT.part2.rar
http://www.heroupload.com/a087531efaa42941/Love.Beats.Rhymes.2017.1080p.WEB-DL.DD5.1.H264-FGT.part3.rar
http://www.heroupload.com/443c5fb600323ee8/Love.Beats.Rhymes.2017.1080p.WEB-DL.DD5.1.H264-FGT.part4.rar

 

Related Topics

  Subject / Started by Replies Last post
0 Replies
53 Views
Last post October 21, 2017, 08:34:46 PM
by wroser
0 Replies
52 Views
Last post October 21, 2017, 08:37:49 PM
by wroser
0 Replies
55 Views
Last post October 21, 2017, 08:45:06 PM
by wroser
0 Replies
84 Views
Last post October 24, 2017, 08:25:49 PM
by wroser
0 Replies
44 Views
Last post November 04, 2017, 05:06:18 AM
by wroser