0 Members and 1 Guest are viewing this topic.

High Resolution English Movies | December 01, 2017, 10:13:27 PM
Slumber (2017) 1080p WEB-DL DD5.1 H264-FGT

wroser

  • Ex-Staff
  • V.I.P
  • *****
  • 1952
    Posts
Slumber (2017) 1080p WEB-DL DD5.1 H264-FGT
« on: December 01, 2017, 10:13:27 PM »





Code: You are not allowed to view links. Register or Login
http://imdb.com/title/tt5181852/

Video
ID                                       : 1
Format                                   : AVC
Format/Info                              : Advanced Video Codec
Format profile                           : [email protected]
Format settings                          : CABAC / 5 Ref Frames
Format settings, CABAC                   : Yes
Format settings, ReFrames                : 5 frames
Codec ID                                 : V_MPEG4/ISO/AVC
Duration                                 : 1 h 24 min
Bit rate                                 : 4 430 kb/s
Width                                    : 1 920 pixels
Height                                   : 800 pixels
Display aspect ratio                     : 2.40:1
Frame rate mode                          : Constant
Frame rate                               : 23.976 (24000/1001) FPS
Color space                              : YUV
Chroma subsampling                       : 4:2:0
Bit depth                                : 8 bits
Scan type                                : Progressive
Bits/(Pixel*Frame)                       : 0.120
Stream size                              : 2.61 GiB (90%)
Title                                    : Slumber.2017.1080p.WEB-DL.DD5.1.H264-FGT
Language                                 : English
Default                                  : Yes
Forced                                   : No
Color range                              : Limited
Color primaries                          : BT.709
Transfer characteristics                 : BT.709
Matrix coefficients                      : BT.709

Audio
ID                                       : 2
Format                                   : AC-3
Format/Info                              : Audio Coding 3
Codec ID                                 : A_AC3
Duration                                 : 1 h 24 min
Bit rate mode                            : Constant
Bit rate                                 : 384 kb/s
Channel(s)                               : 6 channels
Channel positions                        : Front: L C R, Side: L R, LFE
Sampling rate                            : 48.0 kHz
Frame rate                               : 31.250 FPS (1536 SPF)
Bit depth                                : 16 bits
Compression mode                         : Lossy
Delay relative to video                  : -42 ms
Stream size                              : 231 MiB (8%)
Title                                    : Slumber.2017.1080p.WEB-DL.DD5.1.H264-FGT
Language                                 : English
Service kind                             : Complete Main
Default                                  : Yes
Forced                                   : No

Text
ID                                       : 3
Format                                   : UTF-8
Codec ID                                 : S_TEXT/UTF8
Codec ID/Info                            : UTF-8 Plain Text
Language                                 : English
Default                                  : Yes
Forced                                   : No

Menu
00:00:00.000                             : en:1
00:05:26.000                             : en:2
00:10:54.000                             : en:3
00:16:57.000                             : en:4
00:21:35.000                             : en:5
00:27:56.000                             : en:6
00:33:05.000                             : en:7
00:38:26.000                             : en:8
00:44:52.000                             : en:9
00:48:56.000                             : en:10
00:53:23.000                             : en:11
00:59:02.000                             : en:12
01:04:54.000                             : en:13
01:08:32.000                             : en:14
01:17:25.000                             : en:15
01:21:44.000                             : en:1


SINGLE DIRECT FAST LINKS 

Code: You are not allowed to view links. Register or Login
http://www.heroupload.com/1f09c6f60254b764/Slumber.2017.1080p.WEB-DL.DD5.1.H264-FGT.mkv
  1GB LINKS


Code: You are not allowed to view links. Register or Login
http://www.heroupload.com/7beee6f0cc645796/Slumber.2017.1080p.WEB-DL.DD5.1.H264-FGT.part1.rar
http://www.heroupload.com/007a5da060ac5c4c/Slumber.2017.1080p.WEB-DL.DD5.1.H264-FGT.part2.rar
http://www.heroupload.com/1b8a2fdaa851c824/Slumber.2017.1080p.WEB-DL.DD5.1.H264-FGT.part3.rar

 

Related Topics

  Subject / Started by Replies Last post
0 Replies
50 Views
Last post October 21, 2017, 08:34:46 PM
by wroser
0 Replies
47 Views
Last post October 21, 2017, 08:37:49 PM
by wroser
0 Replies
53 Views
Last post October 21, 2017, 08:45:06 PM
by wroser
0 Replies
83 Views
Last post October 24, 2017, 08:25:49 PM
by wroser
0 Replies
42 Views
Last post November 04, 2017, 05:06:18 AM
by wroser