0 Members and 1 Guest are viewing this topic.

Hindi Movies | December 01, 2017, 11:00:30 PM
Dangerous Khiladi 6 (Doosukeltha) (2017) Hindi - 480p - WEB-HD - AVC - AAC-GM Exclusi

wroser

  • Ex-Staff
  • V.I.P
  • *****
  • 1952
    Posts



Code: You are not allowed to view links. Register or Login
General
Format                      : MPEG-4
Format profile              : Base Media
Codec ID                    : isom (isom/iso2/avc1/mp41)
File size                   : 968 MiB
Duration                    : 2 h 14 min
Overall bit rate mode       : Variable
Overall bit rate            : 1 009 kb/s
Encoded date                : UTC 2017-11-27 09:27:23
Tagged date                 : UTC 2017-11-27 09:27:23

Video
ID                          : 1
Format                      : AVC
Format/Info                 : Advanced Video Codec
Format profile              : [email protected]
Format settings, CABAC      : Yes
Format settings, RefFrames  : 3 frames
Codec ID                    : avc1
Codec ID/Info               : Advanced Video Coding
Duration                    : 2 h 14 min
Source duration             : 2 h 14 min
Bit rate                    : 880 kb/s
Width                       : 854 pixels
Height                      : 480 pixels
Display aspect ratio        : 16:9
Frame rate mode             : Constant
Frame rate                  : 25.000 FPS
Color space                 : YUV
Chroma subsampling          : 4:2:0
Bit depth                   : 8 bits
Scan type                   : Progressive
Bits/(Pixel*Frame)          : 0.086
Stream size                 : 844 MiB (87%)
Source stream size          : 844 MiB (87%)
Encoded date                : UTC 2017-11-27 09:27:23
Tagged date                 : UTC 2017-11-27 09:27:23
Color range                 : Limited
Color primaries             : BT.709
Transfer characteristics    : BT.709
Matrix coefficients         : BT.709

Audio
ID                          : 2
Format                      : AAC
Format/Info                 : Advanced Audio Codec
Format profile              : LC
Codec ID                    : 40
Duration                    : 2 h 14 min
Bit rate mode               : Variable
Bit rate                    : 126 kb/s
Channel(s)                  : 2 channels
Channel positions           : Front: L R
Sampling rate               : 44.1 kHz
Frame rate                  : 43.066 FPS (1024 SPF)
Compression mode            : Lossy
Stream size                 : 120 MiB (12%)
Default                     : Yes
Alternate group             : 1
Encoded date                : UTC 2017-11-27 09:29:33
Tagged date                 : UTC 2017-11-27 09:29:33



SINGLE DIRECT FAST LINKS 

Code: You are not allowed to view links. Register or Login
http://www.heroupload.com/c13daecc3d8fe649/Theeran.Adhigaaram.Ondru.2017.480p.HD.AVC.MP4.ESubs.Tamil-WarezRock.mp4


 

Related Topics