0 Members and 1 Guest are viewing this topic.

Download Others Movies | December 01, 2017, 11:26:54 PM
Khakee (2017) Telugu Line - 720p - HDRip - x264 - MP3-MTR

wroser

  • Ex-Staff
  • V.I.P
  • *****
  • 1952
    Posts
Khakee (2017) Telugu Line - 720p - HDRip - x264 - MP3-MTR
« on: December 01, 2017, 11:26:54 PM »





Code: You are not allowed to view links. Register or Login
Format                      : Matroska
Format version              : Version 4 / Version 2
File size                   : 1.42 GiB
Duration                    : 2 h 36 min
Overall bit rate            : 1 300 kb/s
Encoded date                : UTC 2017-12-01 15:55:47
Writing application         : mkvmerge v7.8.0 ('River Man') 64bit built on Mar 27 2015 16:31:37
Writing library             : libebml v1.3.1 + libmatroska v1.4.2

Video
ID                          : 1
Format                      : AVC
Format/Info                 : Advanced Video Codec
Format profile              : [email protected]
Format settings, CABAC      : Yes
Format settings, RefFrames  : 4 frames
Codec ID                    : V_MPEG4/ISO/AVC
Duration                    : 2 h 36 min
Bit rate                    : 1 186 kb/s
Width                       : 1 280 pixels
Height                      : 568 pixels
Display aspect ratio        : 2.25:1
Frame rate mode             : Constant
Frame rate                  : 29.970 (30000/1001) FPS
Color space                 : YUV
Chroma subsampling          : 4:2:0
Bit depth                   : 8 bits
Scan type                   : Progressive
Bits/(Pixel*Frame)          : 0.054
Stream size                 : 1.29 GiB (91%)
Writing library             : x264 core 148 r2744 b97ae06
Encoding settings           : cabac=1 / ref=3 / deblock=1:0:0 / analyse=0x3:0x113 / me=hex / subme=7 / psy=1 / psy_rd=1.00:0.00 / mixed_ref=1 / me_range=16 / chroma_me=1 / trellis=1 / 8x8dct=1 / cqm=0 / deadzone=21,11 / fast_pskip=1 / chroma_qp_offset=-2 / threads=18 / lookahead_threads=3 / sliced_threads=0 / nr=0 / decimate=1 / interlaced=0 / bluray_compat=0 / constrained_intra=0 / bframes=3 / b_pyramid=2 / b_adapt=1 / b_bias=0 / direct=1 / weightb=1 / open_gop=0 / weightp=2 / keyint=300 / keyint_min=29 / scenecut=40 / intra_refresh=0 / rc_lookahead=40 / rc=2pass / mbtree=1 / bitrate=1186 / ratetol=1.0 / qcomp=0.60 / qpmin=0 / qpmax=69 / qpstep=4 / cplxblur=20.0 / qblur=0.5 / ip_ratio=1.40 / aq=1:1.00
Default                     : Yes
Forced                      : No

Audio
ID                          : 2
Format                      : MPEG Audio
Format version              : Version 1
Format profile              : Layer 3
Mode                        : Joint stereo
Mode extension              : MS Stereo
Codec ID                    : A_MPEG/L3
Codec ID/Hint               : MP3
Duration                    : 2 h 36 min
Bit rate mode               : Constant
Bit rate                    : 112 kb/s
Channel(s)                  : 2 channels
Sampling rate               : 44.1 kHz
Frame rate                  : 38.281 FPS (1152 SPF)
Compression mode            : Lossy
Stream size                 : 125 MiB (9%)
Default                     : Yes
Forced                      : No




SINGLE DIRECT FAST LINKS

Code: You are not allowed to view links. Register or Login
http://www.heroupload.com/827cf215d44deefe/Khakee.2017.Telugu.720p.HDRip._x264.Line.Audio-MTR.mkv

 

Related Topics

  Subject / Started by Replies Last post
0 Replies
124 Views
Last post September 30, 2017, 04:55:57 PM
by wroser
0 Replies
129 Views
Last post September 30, 2017, 04:58:49 PM
by wroser
0 Replies
70 Views
Last post November 11, 2017, 09:45:50 PM
by wroser
0 Replies
121 Views
Last post December 01, 2017, 11:30:30 PM
by wroser
0 Replies
372 Views
Last post December 02, 2017, 07:24:38 PM
by wroser