0 Members and 1 Guest are viewing this topic.

Download Others Movies | December 01, 2017, 11:47:28 PM
Theeran Adhigaaram Ondru (2017) Tamil - 1080p - HDRip - x264 - DD5.1 - ESubs-MTR

wroser

  • Ex-Staff
  • V.I.P
  • *****
  • 1952
    Posts



Code: You are not allowed to view links. Register or Login
General
Format                      : Matroska
Format version              : Version 4 / Version 2
File size                   : 3.05 GiB
Duration                    : 2 h 36 min
Overall bit rate            : 2 799 kb/s
Encoded date                : UTC 2017-12-01 16:47:04
Writing application         : mkvmerge v7.8.0 ('River Man') 64bit built on Mar 27 2015 16:31:37
Writing library             : libebml v1.3.1 + libmatroska v1.4.2

Video
ID                          : 1
Format                      : AVC
Format/Info                 : Advanced Video Codec
Format profile              : [email protected]
Format settings, CABAC      : Yes
Format settings, RefFrames  : 4 frames
Codec ID                    : V_MPEG4/ISO/AVC
Duration                    : 2 h 36 min
Bit rate                    : 2 637 kb/s
Width                       : 1 920 pixels
Height                      : 854 pixels
Display aspect ratio        : 2.25:1
Frame rate mode             : Constant
Frame rate                  : 29.970 (30000/1001) FPS
Color space                 : YUV
Chroma subsampling          : 4:2:0
Bit depth                   : 8 bits
Scan type                   : Progressive
Bits/(Pixel*Frame)          : 0.054
Stream size                 : 2.88 GiB (94%)
Writing library             : x264 core 148 r2744 b97ae06
Encoding settings           : cabac=1 / ref=3 / deblock=1:0:0 / analyse=0x3:0x113 / me=hex / subme=7 / psy=1 / psy_rd=1.00:0.00 / mixed_ref=1 / me_range=16 / chroma_me=1 / trellis=1 / 8x8dct=1 / cqm=0 / deadzone=21,11 / fast_pskip=1 / chroma_qp_offset=-2 / threads=27 / lookahead_threads=4 / sliced_threads=0 / nr=0 / decimate=1 / interlaced=0 / bluray_compat=0 / constrained_intra=0 / bframes=3 / b_pyramid=2 / b_adapt=1 / b_bias=0 / direct=1 / weightb=1 / open_gop=0 / weightp=2 / keyint=300 / keyint_min=29 / scenecut=40 / intra_refresh=0 / rc_lookahead=40 / rc=2pass / mbtree=1 / bitrate=2637 / ratetol=1.0 / qcomp=0.60 / qpmin=0 / qpmax=69 / qpstep=4 / cplxblur=20.0 / qblur=0.5 / ip_ratio=1.40 / aq=1:1.00
Language                    : English
Default                     : Yes
Forced                      : No

Audio
ID                          : 2
Format                      : AC-3
Format/Info                 : Audio Coding 3
Format settings, Endianness : Big
Codec ID                    : A_AC3
Duration                    : 2 h 36 min
Bit rate mode               : Constant
Bit rate                    : 160 kb/s
Channel(s)                  : 6 channels
Channel positions           : Front: L C R, Side: L R, LFE
Sampling rate               : 44.1 kHz
Frame rate                  : 28.711 FPS (1536 SPF)
Bit depth                   : 16 bits
Compression mode            : Lossy
Stream size                 : 179 MiB (6%)
Language                    : English
Service kind                : Complete Main
Default                     : Yes
Forced                      : No






SINGLE DIRECT FAST LINKS 

Code: You are not allowed to view links. Register or Login
http://www.heroupload.com/79886d5e4f89fd7a/Theeran.Adhigaaram.Ondru.2017.1080p.HDRip.x264.DD5.1.ESubs.Tamil-MTR.mkv
  700MB LINKS


Code: You are not allowed to view links. Register or Login
http://www.heroupload.com/291ca005a06878c0/Theeran.Adhigaaram.Ondru.2017.1080p.HDRip.x264.DD5.1.ESubs.Tamil-MTR.part1.rar
http://www.heroupload.com/9f8b5dbe86435159/Theeran.Adhigaaram.Ondru.2017.1080p.HDRip.x264.DD5.1.ESubs.Tamil-MTR.part2.rar
http://www.heroupload.com/e34b5b7847cce751/Theeran.Adhigaaram.Ondru.2017.1080p.HDRip.x264.DD5.1.ESubs.Tamil-MTR.part3.rar
http://www.heroupload.com/01919b62c8830364/Theeran.Adhigaaram.Ondru.2017.1080p.HDRip.x264.DD5.1.ESubs.Tamil-MTR.part4.rar
http://www.heroupload.com/825badd58c7dd209/Theeran.Adhigaaram.Ondru.2017.1080p.HDRip.x264.DD5.1.ESubs.Tamil-MTR.part5.rar


 

Related Topics

  Subject / Started by Replies Last post
0 Replies
75 Views
Last post November 18, 2017, 07:08:39 AM
by wroser
0 Replies
91 Views
Last post November 18, 2017, 07:17:51 AM
by wroser
0 Replies
124 Views
Last post December 01, 2017, 11:44:16 PM
by wroser
0 Replies
81 Views
Last post December 15, 2017, 07:31:00 PM
by wroser
0 Replies
84 Views
Last post December 15, 2017, 07:33:07 PM
by wroser