0 Members and 1 Guest are viewing this topic.

Tamil & Telugu Movies Dubbed In Hindi | December 11, 2017, 06:43:05 PM
Sangili Bungali Darwaza Khol (2017) Hindi Dubbed - 2CD - HDTV Rip[x264 - AC3(5.

Mr. X

  • Global Moderator
  • Junior Member
  • *****
  • 199
    Posts
Sangili Bungali Darwaza Khol (2017) Hindi Dubbed -
 2CD - HDTV Rip[x264 - AC3(5.1Ch)] 








Code: You are not allowed to view links. Register or Login
General
Format                                   : Matroska
Format version                           : Version 2
File size                                : 1.40 GiB
Duration                                 : 2 h 41 min

Video
ID                                       : 1
Format                                   : AVC
Format/Info                              : Advanced Video Codec
Format profile                           : [email protected]
Format settings                          : CABAC / 4 Ref Frames
Format settings, CABAC                   : Yes
Format settings, RefFrames               : 4 frames
Codec ID                                 : V_MPEG4/ISO/AVC
Duration                                 : 2 h 41 min
Bit rate                                 : 1 052 kb/s
Width                                    : 720 pixels
Height                                   : 304 pixels
Display aspect ratio                     : 2.35:1
Frame rate mode                          : Constant
Frame rate                               : 25.000 FPS
Color space                              : YUV
Chroma subsampling                       : 4:2:0
Bit depth                                : 8 bits
Scan type                                : Progressive
Bits/(Pixel*Frame)                       : 0.192
Stream size                              : 1.18 GiB (84%)

Audio
ID                                       : 2
Format                                   : AC-3
Format/Info                              : Audio Coding 3
Codec ID                                 : A_AC3
Duration                                 : 2 h 41 min
Bit rate mode                            : Constant
Bit rate                                 : 192 kb/s
Channel(s)                               : 6 channels
Channel positions                        : Front: L C R, Side: L R, LFE
Sampling rate                            : 48.0 kHz
Stream size                              : 221 MiB (15%)
Language                                 : Hindi

Thumbnail







LINKS ARE INTERCHANGEABLE

You are not allowed to view links. Register or Login
You are not allowed to view links. Register or Login
OR
You are not allowed to view links. Register or Login
You are not allowed to view links. Register or Login
OR
You are not allowed to view links. Register or Login
You are not allowed to view links. Register or Login



 

Related Topics

  Subject / Started by Replies Last post
0 Replies
184 Views
Last post August 23, 2017, 11:41:19 AM
by Mr. X
0 Replies
148 Views
Last post August 24, 2017, 12:36:16 PM
by Mr. X
0 Replies
121 Views
Last post August 29, 2017, 08:40:14 AM
by Mr. X
0 Replies
191 Views
Last post August 31, 2017, 05:39:59 PM
by Mr. X
0 Replies
135 Views
Last post December 14, 2017, 06:39:56 PM
by Mr. X