0 Members and 1 Guest are viewing this topic.

Small Size Hindi Movies | December 13, 2017, 02:57:19 PM
Half Girlfriend (2017) - HDRip x264 Mp3 400MB - BiRoHo

_|OpRiYo_aMi|_

  • ɱöƧƭ Ѡᾃŋŧęđ ƪǿᶌɛᴙ
  • Administrator
  • Legend
  • *****
  • 2922
    Posts
  • ï αϻ ĮőϨƐƦ
    • http://solveify.com
Half Girlfriend (2017) - HDRip x264 Mp3 400MB - BiRoHo
« on: December 13, 2017, 02:57:19 PM »




Half Girlfriend (2017) - HDRip x264 Mp3 400MB - BiRoHo














Quote

Format version              : Version 4 / Version 2
File size                   : 381 MiB
Duration                    : 2h 9mn
Overall bit rate            : 412 Kbps

Video
ID                          : 1
Format                      : AVC
Format/Info                 : Advanced Video Codec
Format profile              : [email protected]
Format settings, CABAC      : Yes
Format settings, ReFrames   : 4 frames
Codec ID                    : V_MPEG4/ISO/AVC
Duration                    : 2h 9mn
Bit rate                    : 350 Kbps
Width                       : 960 pixels
Height                      : 540 pixels
Display aspect ratio        : 16:9
Frame rate mode             : Constant
Frame rate                  : 25.000 fps
Color space                 : YUV
Chroma subsampling          : 4:2:0
Bit depth                   : 8 bits
Scan type                   : Progressive
Bits/(Pixel*Frame)          : 0.027
Stream size                 : 314 MiB (82%)


Audio
ID                          : 2
Format                      : MPEG Audio
Format version              : Version 1
Format profile              : Layer 3
Mode                        : Joint stereo
Codec ID                    : A_MPEG/L3
Codec ID/Hint               : MP3
Duration                    : 2h 9mn
Bit rate mode               : Constant
Bit rate                    : 64.0 Kbps
Channel(s)                  : 2 channels
Sampling rate               : 44.1 KHz
Compression mode            : Lossy
Delay relative to video     : -16ms
Stream size                 : 59.2 MiB (16%)
Language                    : Hindi
Default                     : Yes
Forced                      : No
Biroho Entertainment Team [BET]
























uploadboy
You are not allowed to view links. Register or Login

Uptobox
You are not allowed to view links. Register or Login

bdupload
You are not allowed to view links. Register or Login

indishare
You are not allowed to view links. Register or Login


Get Free Registered in file host for better speed & get many benefit..!!

 

Related Topics

  Subject / Started by Replies Last post
0 Replies
90 Views
Last post September 13, 2017, 01:59:37 AM
by wroser
0 Replies
115 Views
Last post September 13, 2017, 02:02:08 AM
by wroser
0 Replies
70 Views
Last post September 27, 2017, 09:49:00 PM
by wroser
0 Replies
114 Views
Last post December 02, 2017, 09:01:32 AM
by wroser
0 Replies
116 Views
Last post December 02, 2017, 09:06:03 AM
by wroser