0 Members and 1 Guest are viewing this topic.

Kolkata Bangla Movies | December 13, 2017, 06:32:12 PM
DHIMANER DINKAAL (2017)Bengali Movie - 2CD - Web Series Rip[x264 - AAC3(5.1Ch)]

Mr. X

  • Global Moderator
  • Junior Member
  • *****
  • 199
    Posts
DHIMANER DINKAAL (2017)Bengali Movie - 2CD -
 Web Series Rip[x264 - AAC3(5.1Ch)]









Code: You are not allowed to view links. Register or Login
General
Format                                   : Matroska
Format version                           : Version 2
File size                                : 1.40 GiB
Duration                                 : 3 h 28 min

Video
ID                                       : 1
Format                                   : AVC
Format/Info                              : Advanced Video Codec
Format profile                           : [email protected]
Format settings                          : CABAC / 4 Ref Frames
Format settings, CABAC                   : Yes
Format settings, RefFrames               : 4 frames
Codec ID                                 : V_MPEG4/ISO/AVC
Duration                                 : 3 h 28 min
Bit rate                                 : 833 kb/s
Width                                    : 720 pixels
Height                                   : 360 pixels
Display aspect ratio                     : 2.000
Frame rate mode                          : Constant
Frame rate                               : 25.000 FPS
Color space                              : YUV
Chroma subsampling                       : 4:2:0
Bit depth                                : 8 bits
Scan type                                : Progressive
Bits/(Pixel*Frame)                       : 0.129
Stream size                              : 1.21 GiB (87%)

Audio
ID                                       : 2
Format                                   : AAC
Format/Info                              : Advanced Audio Codec
Format profile                           : HE-AAC / LC
Format settings                          : Explicit
Codec ID                                 : A_AAC-2
Duration                                 : 3 h 28 min
Bit rate                                 : 128 kb/s
Channel(s)                               : 6 channels
Channel positions                        : Front: L C R, Side: L R, LFE
Sampling rate                            : 48.0 kHz / 24.0 kHz
Stream size                              : 190 MiB (13%)

Thumbnail






LINKS ARE INTERCHANGEABLE

You are not allowed to view links. Register or Login
You are not allowed to view links. Register or Login
OR
You are not allowed to view links. Register or Login
You are not allowed to view links. Register or Login
OR
You are not allowed to view links. Register or Login
You are not allowed to view links. Register or Login


 

Related Topics

  Subject / Started by Replies Last post
0 Replies
288 Views
Last post August 05, 2017, 10:11:56 AM
by Mr. X
0 Replies
224 Views
Last post August 20, 2017, 11:57:07 PM
by Mr. X
0 Replies
184 Views
Last post August 23, 2017, 11:41:19 AM
by Mr. X
0 Replies
197 Views
Last post August 27, 2017, 01:14:56 PM
by Mr. X
0 Replies
992 Views
Last post December 18, 2017, 09:36:53 PM
by Mr. X