0 Members and 1 Guest are viewing this topic.

Kolkata Bangla Movies | December 15, 2017, 12:13:17 PM
Room No 103 (Bengali Movie) - 1CD - HD Rip[x264- AAC3(2Ch)]

Mr. X

  • Global Moderator
  • Junior Member
  • *****
  • 199
    Posts
Room No 103 (Bengali Movie) - 1CD - HD Rip[x264- AAC3(2Ch)]
« on: December 15, 2017, 12:13:17 PM »
Room No 103 (Bengali Movie) - 1CD -
 HD Rip[x264- AAC3(2Ch)]








Code: You are not allowed to view links. Register or Login
General
Format                                   : Matroska
Format version                           : Version 2
File size                                : 699 MiB
Duration                                 : 2 h 23 min

Video
ID                                       : 1
Format                                   : AVC
Format/Info                              : Advanced Video Codec
Format profile                           : [email protected]
Format settings                          : CABAC / 4 Ref Frames
Format settings, CABAC                   : Yes
Format settings, RefFrames               : 4 frames
Codec ID                                 : V_MPEG4/ISO/AVC
Duration                                 : 2 h 23 min
Bit rate                                 : 598 kb/s
Width                                    : 560 pixels
Height                                   : 232 pixels
Display aspect ratio                     : 2.40:1
Frame rate mode                          : Constant
Frame rate                               : 25.000 FPS
Color space                              : YUV
Chroma subsampling                       : 4:2:0
Bit depth                                : 8 bits
Scan type                                : Progressive
Bits/(Pixel*Frame)                       : 0.184
Stream size                              : 615 MiB (88%)

Audio
ID                                       : 2
Format                                   : AAC
Format/Info                              : Advanced Audio Codec
Format profile                           : HE-AAC / LC
Format settings                          : Explicit
Codec ID                                 : A_AAC-2
Duration                                 : 2 h 23 min
Bit rate                                 : 80.0 kb/s
Channel(s)                               : 2 channels
Channel positions                        : Front: L R
Sampling rate                            : 48.0 kHz / 24.0 kHz
Stream size                              : 82.2 MiB (12%)

Thumbnail








You are not allowed to view links. Register or Login
You are not allowed to view links. Register or Login
You are not allowed to view links. Register or Login

« Last Edit: December 15, 2017, 01:15:31 PM by Mr. X »

 

Related Topics

  Subject / Started by Replies Last post
0 Replies
409 Views
Last post May 17, 2015, 11:02:22 PM
by ♥♫ ŘÃŇĎỖϻ ŘĮĎỖЎ ♥♫
0 Replies
60 Views
Last post August 04, 2017, 09:50:35 AM
by Mr. X
0 Replies
71 Views
Last post August 04, 2017, 11:33:13 AM
by Mr. X
0 Replies
111 Views
Last post August 04, 2017, 03:48:24 PM
by Mr. X
0 Replies
169 Views
Last post August 28, 2017, 04:29:36 PM
by Mr. X