0 Members and 1 Guest are viewing this topic.

Download Others Movies | December 15, 2017, 07:31:00 PM
Theeran Adhigaaram Ondru (2017) Tamil - 720p - WEB-HD - AVC - AAC 5.1 - ESubs-MTR

wroser

  • Ex-Staff
  • V.I.P
  • *****
  • 1952
    Posts


Code: You are not allowed to view links. Register or Login
General
Format                      : MPEG-4
Format profile              : Base Media
Codec ID                    : isom (isom)
File size                   : 2.53 GiB
Duration                    : 2 h 36 min
Overall bit rate mode       : Variable
Overall bit rate            : 2 319 kb/s
Encoded date                : UTC 2017-12-14 19:14:02
Tagged date                 : UTC 2017-12-14 19:14:02
Writing application         : MkvToMp4 [www.mkvtomp4.ru] version 0.224 (x64)

Video
ID                          : 1
Format                      : AVC
Format/Info                 : Advanced Video Codec
Format profile              : [email protected]
Format settings, CABAC      : Yes
Format settings, RefFrames  : 4 frames
Codec ID                    : avc1
Codec ID/Info               : Advanced Video Coding
Duration                    : 2 h 36 min
Bit rate                    : 1 998 kb/s
Maximum bit rate            : 5 646 kb/s
Width                       : 1 280 pixels
Height                      : 720 pixels
Display aspect ratio        : 16:9
Frame rate mode             : Constant
Frame rate                  : 24.000 FPS
Color space                 : YUV
Chroma subsampling          : 4:2:0
Bit depth                   : 8 bits
Scan type                   : Progressive
Bits/(Pixel*Frame)          : 0.090
Stream size                 : 2.18 GiB (86%)
Writing library             : Zencoder Video Encoding System
Language                    : English
Tagged date                 : UTC 2017-12-14 19:14:09
Color range                 : Limited
Color primaries             : BT.709
Transfer characteristics    : BT.709
Matrix coefficients         : BT.709

Audio
ID                          : 2
Format                      : AAC
Format/Info                 : Advanced Audio Codec
Format profile              : LC
Codec ID                    : 40
Duration                    : 2 h 36 min
Bit rate mode               : Variable
Bit rate                    : 317 kb/s
Maximum bit rate            : 388 kb/s
Channel(s)                  : 2 channels
Channel(s)_Original         : 6 channels
Channel positions           : Front: L C R, Side: L R, LFE
Sampling rate               : 48.0 kHz
Frame rate                  : 46.875 FPS (1024 SPF)
Compression mode            : Lossy
Stream size                 : 353 MiB (14%)
Language                    : English
Default                     : Yes
Alternate group             : 1
Encoded date                : UTC 2017-12-14 19:14:06
Tagged date                 : UTC 2017-12-14 19:14:09





SINGLE DIRECT FAST LINKS

Code: You are not allowed to view links. Register or Login
http://www.heroupload.com/5810402e1518f8a2/Theeran.Adhigaaram.Ondru.2017.Proper.720p.v2.HD.AVC.MP4.5.1.ESubs.Tamil-MTR.mp4
  700MB LINKS


Code: You are not allowed to view links. Register or Login
http://www.heroupload.com/537b0ef54b51007d/Theeran.Adhigaaram.Ondru.2017.Proper.720p.v2.HD.AVC.MP4.5.1.ESubs.Tamil-MTR.part1.rar
http://www.heroupload.com/3714823b2fbc74ad/Theeran.Adhigaaram.Ondru.2017.Proper.720p.v2.HD.AVC.MP4.5.1.ESubs.Tamil-MTR.part2.rar
http://www.heroupload.com/9416269a2eba6752/Theeran.Adhigaaram.Ondru.2017.Proper.720p.v2.HD.AVC.MP4.5.1.ESubs.Tamil-MTR.part3.rar
http://www.heroupload.com/52cf76c953065c92/Theeran.Adhigaaram.Ondru.2017.Proper.720p.v2.HD.AVC.MP4.5.1.ESubs.Tamil-MTR.part4.rar
http://www.heroupload.com/29979a06b2abb07c/Theeran.Adhigaaram.Ondru.2017.Proper.720p.v2.HD.AVC.MP4.5.1.ESubs.Tamil-MTR.srt

 

Related Topics

  Subject / Started by Replies Last post
0 Replies
75 Views
Last post November 18, 2017, 07:08:39 AM
by wroser
0 Replies
124 Views
Last post December 01, 2017, 10:32:35 PM
by wroser
0 Replies
123 Views
Last post December 01, 2017, 11:44:16 PM
by wroser
0 Replies
136 Views
Last post December 01, 2017, 11:47:28 PM
by wroser
0 Replies
84 Views
Last post December 15, 2017, 07:33:07 PM
by wroser