0 Members and 1 Guest are viewing this topic.

Download Others Movies | December 15, 2017, 07:33:07 PM
Theeran Adhigaaram Ondru (2017) Tamil - 1080p - WEB-HD - AVC - AAC 5.1 - ESubs-MTR

wroser

  • Ex-Staff
  • V.I.P
  • *****
  • 1952
    Posts



Code: You are not allowed to view links. Register or Login
General
Format                      : MPEG-4
Format profile              : Base Media
Codec ID                    : isom (isom)
File size                   : 4.80 GiB
Duration                    : 2 h 36 min
Overall bit rate mode       : Variable
Overall bit rate            : 4 407 kb/s
Encoded date                : UTC 2017-12-14 19:13:06
Tagged date                 : UTC 2017-12-14 19:13:06
Writing application         : MkvToMp4 [www.mkvtomp4.ru] version 0.224 (x64)

Video
ID                          : 1
Format                      : AVC
Format/Info                 : Advanced Video Codec
Format profile              : [email protected]
Format settings, CABAC      : Yes
Format settings, RefFrames  : 4 frames
Codec ID                    : avc1
Codec ID/Info               : Advanced Video Coding
Duration                    : 2 h 36 min
Bit rate                    : 4 087 kb/s
Maximum bit rate            : 10.8 Mb/s
Width                       : 1 920 pixels
Height                      : 1 080 pixels
Display aspect ratio        : 16:9
Frame rate mode             : Constant
Frame rate                  : 24.000 FPS
Color space                 : YUV
Chroma subsampling          : 4:2:0
Bit depth                   : 8 bits
Scan type                   : Progressive
Bits/(Pixel*Frame)          : 0.082
Stream size                 : 4.45 GiB (93%)
Writing library             : Zencoder Video Encoding System
Language                    : English
Tagged date                 : UTC 2017-12-14 19:13:16
Color range                 : Limited
Color primaries             : BT.709
Transfer characteristics    : BT.709
Matrix coefficients         : BT.709

Audio
ID                          : 2
Format                      : AAC
Format/Info                 : Advanced Audio Codec
Format profile              : LC
Codec ID                    : 40
Duration                    : 2 h 36 min
Bit rate mode               : Variable
Bit rate                    : 317 kb/s
Maximum bit rate            : 388 kb/s
Channel(s)                  : 2 channels
Channel(s)_Original         : 6 channels
Channel positions           : Front: L C R, Side: L R, LFE
Sampling rate               : 48.0 kHz
Frame rate                  : 46.875 FPS (1024 SPF)
Compression mode            : Lossy
Stream size                 : 353 MiB (7%)
Language                    : English
Default                     : Yes
Alternate group             : 1
Encoded date                : UTC 2017-12-14 19:13:13
Tagged date                 : UTC 2017-12-14 19:13:16







SINGLE DIRECT FAST LINKS

Code: You are not allowed to view links. Register or Login
http://www.heroupload.com/ba9b442ce4c7b7e0/Theeran.Adhigaaram.Ondru.2017.Proper.1080p.v2.HD.AVC.MP4.5.1.ESubs.Tamil-MTR.mp4
1GB LINKS

Code: You are not allowed to view links. Register or Login
http://www.heroupload.com/e5c9b146bb7491d8/Theeran.Adhigaaram.Ondru.2017.Proper.1080p.v2.HD.AVC.MP4.5.1.ESubs.Tamil-MTR.part1.rar
http://www.heroupload.com/4a65af816c94e38d/Theeran.Adhigaaram.Ondru.2017.Proper.1080p.v2.HD.AVC.MP4.5.1.ESubs.Tamil-MTR.part2.rar
http://www.heroupload.com/431b8fafd99e2b52/Theeran.Adhigaaram.Ondru.2017.Proper.1080p.v2.HD.AVC.MP4.5.1.ESubs.Tamil-MTR.part3.rar
http://www.heroupload.com/17f3dba0dc634a6a/Theeran.Adhigaaram.Ondru.2017.Proper.1080p.v2.HD.AVC.MP4.5.1.ESubs.Tamil-MTR.part4.rar
http://www.heroupload.com/482d7ea4c7a7a789/Theeran.Adhigaaram.Ondru.2017.Proper.1080p.v2.HD.AVC.MP4.5.1.ESubs.Tamil-MTR.part5.rar
http://www.heroupload.com/6b2f66ea52455420/Theeran.Adhigaaram.Ondru.2017.Proper.1080p.v2.HD.AVC.MP4.5.1.ESubs.Tamil-MTR.srt

 

Related Topics

  Subject / Started by Replies Last post
0 Replies
91 Views
Last post November 18, 2017, 07:17:51 AM
by wroser
0 Replies
124 Views
Last post December 01, 2017, 10:32:35 PM
by wroser
0 Replies
123 Views
Last post December 01, 2017, 11:44:16 PM
by wroser
0 Replies
136 Views
Last post December 01, 2017, 11:47:28 PM
by wroser
0 Replies
80 Views
Last post December 15, 2017, 07:31:00 PM
by wroser