0 Members and 1 Guest are viewing this topic.

High Resolution Movies | December 15, 2017, 09:30:06 PM
The Hungry (2017) 1080p - WEB-HD - AVC - AAC 2.0-Team Jio Exclusive

wroser

  • Ex-Staff
  • V.I.P
  • *****
  • 1952
    Posts




Code: You are not allowed to view links. Register or Login
Format                      : Matroska
Format version              : Version 4 / Version 2
File size                   : 5.24 GiB
Duration                    : 1 h 39 min
Overall bit rate mode       : Variable
Overall bit rate            : 7 558 kb/s
Encoded date                : UTC 2017-12-15 07:57:39
Writing application         : mkvmerge v18.0.0 ('Apricity') 64-bit
Writing library             : libebml v1.3.5 + libmatroska v1.4.8

Video
ID                          : 1
Format                      : AVC
Format/Info                 : Advanced Video Codec
Format profile              : [email protected]
Format settings             : CABAC / 2 Ref Frames
Format settings, CABAC      : Yes
Format settings, ReFrames   : 2 frames
Codec ID                    : V_MPEG4/ISO/AVC
Duration                    : 1 h 39 min
Bit rate mode               : Variable
Bit rate                    : 7 425 kb/s
Maximum bit rate            : 16.0 Mb/s
Width                       : 1 920 pixels
Height                      : 1 080 pixels
Display aspect ratio        : 16:9
Frame rate mode             : Constant
Frame rate                  : 30.000 FPS
Color space                 : YUV
Chroma subsampling          : 4:2:0
Bit depth                   : 8 bits
Scan type                   : Progressive
Bits/(Pixel*Frame)          : 0.119
Stream size                 : 5.14 GiB (98%)
Default                     : Yes
Forced                      : No
Color range                 : Full
Matrix coefficients         : BT.709

Audio
ID                          : 2
Format                      : AAC
Format/Info                 : Advanced Audio Codec
Format profile              : LC
Codec ID                    : A_AAC-2
Duration                    : 1 h 39 min
Bit rate                    : 132 kb/s
Channel(s)                  : 2 channels
Channel positions           : Front: L R
Sampling rate               : 44.1 kHz
Frame rate                  : 43.066 FPS (1024 SPF)
Compression mode            : Lossy
Stream size                 : 93.0 MiB (2%)
Default                     : Yes
Forced                      : No





 SINGLE DIRECT FAST LINKS

Code: You are not allowed to view links. Register or Login
http://www.heroupload.com/23a72812301aa546/The.Hungry.2017.1080pHD.AVC.AAC.2.0-Team.Jio.Exclusive.mkv
1GB LINKS


Code: You are not allowed to view links. Register or Login
http://www.heroupload.com/1c8f8b59db018030/The.Hungry.2017.1080pHD.AVC.AAC.2.0-Team.Jio.Exclusive.part1.rar
http://www.heroupload.com/76915f656ffb9abd/The.Hungry.2017.1080pHD.AVC.AAC.2.0-Team.Jio.Exclusive.part2.rar
http://www.heroupload.com/fdd8002ff11f228e/The.Hungry.2017.1080pHD.AVC.AAC.2.0-Team.Jio.Exclusive.part3.rar
http://www.heroupload.com/4bdfa7e078244da8/The.Hungry.2017.1080pHD.AVC.AAC.2.0-Team.Jio.Exclusive.part4.rar
http://www.heroupload.com/eb76ed3bf8014922/The.Hungry.2017.1080pHD.AVC.AAC.2.0-Team.Jio.Exclusive.part5.rar
http://www.heroupload.com/2a58318b04f636e9/The.Hungry.2017.1080pHD.AVC.AAC.2.0-Team.Jio.Exclusive.part6.rar

 

Related Topics

  Subject / Started by Replies Last post
0 Replies
111 Views
Last post August 20, 2017, 04:16:09 PM
by wroser
0 Replies
95 Views
Last post August 24, 2017, 12:21:15 PM
by wroser
0 Replies
78 Views
Last post November 25, 2017, 10:47:21 PM
by wroser
0 Replies
201 Views
Last post November 28, 2017, 02:05:57 PM
by wroser
0 Replies
830 Views
Last post December 15, 2017, 09:37:05 PM
by wroser