0 Members and 1 Guest are viewing this topic.

High Resolution Movies | December 15, 2017, 09:40:32 PM
Ittefaq (2017) 1GB - 720p - HDRip - x264 - AAC 5.1-TeamHHD

wroser

  • Ex-Staff
  • V.I.P
  • *****
  • 1952
    Posts
Ittefaq (2017) 1GB - 720p - HDRip - x264 - AAC 5.1-TeamHHD
« on: December 15, 2017, 09:40:32 PM »




Code: You are not allowed to view links. Register or Login
General
Format                                   : Matroska
Format version                           : Version 4 / Version 2
File size                                : 901 MiB
Duration                                 : 1 h 45 min
Overall bit rate                         : 1 194 kb/s
Movie name                               : [email protected]

Video
Format                                   : AVC
Format/Info                              : Advanced Video Codec
Format profile                           : [email protected]
Format settings, CABAC                   : Yes
Format settings, RefFrames               : 8 frames
Codec ID                                 : V_MPEG4/ISO/AVC
Duration                                 : 1 h 45 min
Bit rate                                 : 1 000 kb/s
Width                                    : 1 280 pixels
Height                                   : 536 pixels
Display aspect ratio                     : 2.40:1
Frame rate mode                          : Constant
Frame rate                               : 24.000 FPS
Color space                              : YUV
Chroma subsampling                       : 4:2:0
Bit depth                                : 8 bits
Scan type                                : Progressive
Bits/(Pixel*Frame)                       : 0.061
Stream size                              : 755 MiB (84%)
Title                                    : [email protected]

Audio
Format                                   : AAC
Format/Info                              : Advanced Audio Codec
Format profile                           : LC
Codec ID                                 : A_AAC
Duration                                 : 1 h 45 min
Bit rate                                 : 192 kb/s
Channel(s)                               : 6 channels
Channel positions                        : Front: L C R, Side: L R, LFE
Sampling rate                            : 48.0 kHz
Frame rate                               : 46.875 FPS (1024 SPF)
Compression mode                         : Lossy
Delay relative to video                  : -21 ms
Stream size                              : 144 MiB (16%)
Title                                    : [email protected]
Language                                 : Hindi
Default                                  : Yes














 SINGLE DIRECT FAST LINKS

Code: You are not allowed to view links. Register or Login
http://www.heroupload.com/ccc5fd8c63a569f8/Ittefaq.2017.Hindi.720p.HDRip.x264.AAC.5.1-HHD.mkv

 

Related Topics

  Subject / Started by Replies Last post
0 Replies
2976 Views
Last post December 12, 2016, 07:57:10 PM
by RD-Devil
0 Replies
84 Views
Last post October 06, 2017, 06:04:40 AM
by wroser
0 Replies
104 Views
Last post November 10, 2017, 01:30:07 PM
by wroser
0 Replies
99 Views
Last post December 01, 2017, 04:18:36 AM
by wroser
0 Replies
119 Views
Last post December 01, 2017, 04:21:55 AM
by wroser