0 Members and 1 Guest are viewing this topic.

Hindi Movies (Pre Releases) | December 16, 2017, 04:00:37 PM
Aksar 2 - 1CD - Pre DvDScrRip [x264 - AAC3(2Ch)]

Mr. X

  • Global Moderator
  • Junior Member
  • *****
  • 199
    Posts
Aksar 2 - 1CD - Pre DvDScrRip [x264 - AAC3(2Ch)]
« on: December 16, 2017, 04:00:37 PM »
Aksar 2 - 1CD - Pre DvDScrRip
[x264 - AAC3(2Ch)] 








Code: You are not allowed to view links. Register or Login
General
Format                                   : Matroska
Format version                           : Version 2
File size                                : 700 MiB
Duration                                 : 2 h 12 min

Video
ID                                       : 1
Format                                   : AVC
Format/Info                              : Advanced Video Codec
Format profile                           : [email protected]
Format settings                          : CABAC / 4 Ref Frames
Format settings, CABAC                   : Yes
Format settings, RefFrames               : 4 frames
Codec ID                                 : V_MPEG4/ISO/AVC
Duration                                 : 2 h 12 min
Bit rate                                 : 607 kb/s
Width                                    : 640 pixels
Height                                   : 272 pixels
Display aspect ratio                     : 2.35:1
Frame rate mode                          : Constant
Frame rate                               : 25.000 FPS
Color space                              : YUV
Chroma subsampling                       : 4:2:0
Bit depth                                : 8 bits
Scan type                                : Progressive
Bits/(Pixel*Frame)                       : 0.139
Stream size                              : 576 MiB (82%)

Audio
ID                                       : 2
Format                                   : AAC
Format/Info                              : Advanced Audio Codec
Format profile                           : LC
Codec ID                                 : A_AAC-2
Duration                                 : 2 h 12 min
Bit rate                                 : 128 kb/s
Channel(s)                               : 2 channels
Channel positions                        : Front: L R
Sampling rate                            : 48.0 kHz
Stream size                              : 122 MiB (17%)

Thumbnail






You are not allowed to view links. Register or Login
You are not allowed to view links. Register or Login
You are not allowed to view links. Register or Login


 

Related Topics

  Subject / Started by Replies Last post
0 Replies
144 Views
Last post August 04, 2017, 12:50:42 PM
by Mr. X
0 Replies
152 Views
Last post August 04, 2017, 12:59:38 PM
by Mr. X
0 Replies
160 Views
Last post August 04, 2017, 01:07:53 PM
by Mr. X
0 Replies
235 Views
Last post August 18, 2017, 06:55:07 PM
by Mr. X
0 Replies
231 Views
Last post August 19, 2017, 12:45:55 AM
by Mr. X