0 Members and 1 Guest are viewing this topic.

High Resolution Movies | December 18, 2017, 09:36:53 PM
DEV DD (Hindi) Web Series Movie - Web Rip[x264 - AAC3(5.1Ch)] - 1.05 GB

Mr. X

  • Global Moderator
  • Junior Member
  • *****
  • 199
    Posts
DEV DD (Hindi) Web Series Movie -
Web Rip[x264 - AAC3(5.1Ch)] - 1.05 GB








Code: You are not allowed to view links. Register or Login
General
Format                                   : Matroska
Format version                           : Version 2
File size                                : 1.06 GiB
Duration                                 : 3 h 53 min

Video
ID                                       : 1
Format                                   : AVC
Format/Info                              : Advanced Video Codec
Format profile                           : [email protected]
Format settings                          : CABAC / 4 Ref Frames
Format settings, CABAC                   : Yes
Format settings, RefFrames               : 4 frames
Codec ID                                 : V_MPEG4/ISO/AVC
Duration                                 : 3 h 53 min
Bit rate                                 : 518 kb/s
Width                                    : 720 pixels
Height                                   : 392 pixels
Display aspect ratio                     : 1.85:1
Frame rate mode                          : Constant
Frame rate                               : 25.000 FPS
Color space                              : YUV
Chroma subsampling                       : 4:2:0
Bit depth                                : 8 bits
Scan type                                : Progressive
Bits/(Pixel*Frame)                       : 0.073
Stream size                              : 865 MiB (80%)

Audio
ID                                       : 2
Format                                   : AAC
Format/Info                              : Advanced Audio Codec
Format profile                           : HE-AAC / LC
Format settings                          : Explicit
Codec ID                                 : A_AAC-2
Duration                                 : 3 h 53 min
Bit rate                                 : 128 kb/s
Channel(s)                               : 6 channels
Channel positions                        : Front: L C R, Side: L R, LFE
Sampling rate                            : 48.0 kHz / 24.0 kHz
Stream size                              : 213 MiB (20%)

Thumbnail








You are not allowed to view links. Register or Login
You are not allowed to view links. Register or Login
You are not allowed to view links. Register or Login


 

Related Topics

  Subject / Started by Replies Last post
1 Replies
916 Views
Last post April 26, 2016, 04:27:25 AM
by AkraborEl
0 Replies
289 Views
Last post August 05, 2017, 10:11:56 AM
by Mr. X
0 Replies
190 Views
Last post August 07, 2017, 08:30:29 PM
by Mr. X
0 Replies
228 Views
Last post August 20, 2017, 11:57:07 PM
by Mr. X
0 Replies
303 Views
Last post December 13, 2017, 06:32:12 PM
by Mr. X