0 Members and 1 Guest are viewing this topic.

Tamil & Telugu Movies Dubbed In Hindi | February 04, 2015, 02:23:06 PM
Chandi (Chandee) 2013 Hindi Dubbed 1080p Untouched HDRIP AVC AAC...Hon3y

_|OpRiYo_aMi|_

  • ɱöƧƭ Ѡᾃŋŧęđ ƪǿᶌɛᴙ
  • Administrator
  • Legend
  • *****
  • 2922
    Posts
  • ï αϻ ĮőϨƐƦ
    • http://solveify.com













Quote
File: Chandi (Chandee) 2013 Hindi Dubbed1080p Untouched HDRIP AVC AAC...Hon3y.mp4
General
Format : MPEG-4
Format profile : Base Media
Codec ID : isom
File size : 2.62 GiB
Duration : 1h 48mn
Overall bit rate : 3 460 Kbps
Writing application : Lavf54.29.104

Video
ID : 1
Format : AVC
Format/Info : Advanced Video Codec
Format profile : [email protected]
Format settings, CABAC : Yes
Format settings, ReFrames : 3 frames
Codec ID : avc1
Codec ID/Info : Advanced Video Coding
Duration : 1h 48mn
Bit rate : 3 330 Kbps
Width : 1 920 pixels
Height : 1 080 pixels
Display aspect ratio : 16:9
Frame rate mode : Constant
Frame rate : 24.000 fps
Color space : YUV
Chroma subsampling : 4:2:0
Bit depth : 8 bits
Scan type : Progressive
Bits/(Pixel*Frame) : 0.067
Stream size : 2.53 GiB (96%)

Audio
ID : 2
Format : AAC
Format/Info : Advanced Audio Codec
Format profile : LC
Codec ID : 40
Duration : 1h 48mn
Bit rate mode : Constant
Bit rate : 126 Kbps
Channel(s) : 2 channels
Channel positions : Front: L R
Sampling rate : 44.1 KHz
Compression mode : Lossy
Stream size : 97.5 MiB (4%)





























Uptobox
You are not allowed to view links. Register or Login

UsersFiles
You are not allowed to view links. Register or Login

BillionUploads
You are not allowed to view links. Register or Login

180Upload
You are not allowed to view links. Register or Login
Get Free Registered in file host for better speed & get many benefit..!!

 

Related Topics