Recent Posts

Pages: [1] 2 3 ... 10
1
Kolkata Bangla Movies / Maacher Jhol (2018) Bengali Movie 720p HDRip
« Last post by ąþɦɨƙ on January 03, 2018, 11:55:18 AM »




Release Date: 18 August 2017 (Kolkata)
Genres: Drama , Familly
Language: Bengali
Quality: HDRip
Size: 800MB
Director: Pratim D. Gupta
Writers: Pratim D. Gupta
Stars: Ritwick Chakraborty ,Paoli Dam









You are not allowed to view links. Register or Login
2




:info:

Released Date: 2017
Types: Romance, Drama
Stars: Dileep Kumar, Nisha Shah, Bablu and Suman Shetty
Quality: 720p HDRip
Size: 841MB
Directed: Welding Srinivas. Kanikineni Lokesh


:ss:



:download:


You are not allowed to view links. Register or Login

You are not allowed to view links. Register or Login

You are not allowed to view links. Register or Login
3


:info:

Release Date : 30 Dec 2017 (India)
Genre : Action, Comedy, Romance
Size : 1 GB
Language : Hindi
Quality : 720p HDRIP
Written : Prakash Jadeya
Directed : Manju Swaraj
Produced : S.V.Babu
Stars : Ganesh, Sai Kumar, Ashish Vidyarthi


:ss:



:download:


You are not allowed to view links. Register or Login
4
Kolkata Bangla Movies / Jio Pagla (2017) Bengali 720p HDRip 900 MB
« Last post by ąþɦɨƙ on December 31, 2017, 12:08:35 PM »


:info:

Release Date : 20 October 2017 (India)
Music : Jeet Gannguli
Presenter : Nispal Singh
Produced by : Surinder Films
Director : Ravi Kinagi
Starring : Jisshu Sengupta, Soham Chakraborty, Hiraan Chatterjee , Bonny Sengupta, Srabanti, Payel Sarkar, Koushani


:ss:



:download:


You are not allowed to view links. Register or Login
5



:info:

Genres: Comedy , Romance
Language: Hindi
Quality: 720p DVDRip
Size: 992mb
Directors: Adhik Ravichandran
Writers: Adhik Ravichandran
Stars:G. V. Prakash Kumar , Anandhi , Manisha Yadav


:ss:



:download:


You are not allowed to view links. Register or Login
6


:info:

IMDB Ratings: 4.7/10
Genres: Action, Adventure, Drama
Language: Hindi
Quality: 720p DVDRip
Size: 992mb
Directors: Jeeva, Aneez Jeeva
Writers: Jeeva
Stars: Jayam Ravi, Raai Laxmi, Kangana Ranaut


:ss:






:download:


You are not allowed to view links. Register or Login
7
DEV DD (Hindi) Web Series Movie -
Web Rip[x264 - AAC3(5.1Ch)] - 1.05 GB








Code: You are not allowed to view links. Register or Login
General
Format                                   : Matroska
Format version                           : Version 2
File size                                : 1.06 GiB
Duration                                 : 3 h 53 min

Video
ID                                       : 1
Format                                   : AVC
Format/Info                              : Advanced Video Codec
Format profile                           : [email protected]
Format settings                          : CABAC / 4 Ref Frames
Format settings, CABAC                   : Yes
Format settings, RefFrames               : 4 frames
Codec ID                                 : V_MPEG4/ISO/AVC
Duration                                 : 3 h 53 min
Bit rate                                 : 518 kb/s
Width                                    : 720 pixels
Height                                   : 392 pixels
Display aspect ratio                     : 1.85:1
Frame rate mode                          : Constant
Frame rate                               : 25.000 FPS
Color space                              : YUV
Chroma subsampling                       : 4:2:0
Bit depth                                : 8 bits
Scan type                                : Progressive
Bits/(Pixel*Frame)                       : 0.073
Stream size                              : 865 MiB (80%)

Audio
ID                                       : 2
Format                                   : AAC
Format/Info                              : Advanced Audio Codec
Format profile                           : HE-AAC / LC
Format settings                          : Explicit
Codec ID                                 : A_AAC-2
Duration                                 : 3 h 53 min
Bit rate                                 : 128 kb/s
Channel(s)                               : 6 channels
Channel positions                        : Front: L C R, Side: L R, LFE
Sampling rate                            : 48.0 kHz / 24.0 kHz
Stream size                              : 213 MiB (20%)

Thumbnail








You are not allowed to view links. Register or Login
You are not allowed to view links. Register or Login
You are not allowed to view links. Register or Login

8
Hindi Movies (Pre Releases) / Aksar 2 - 1CD - Pre DvDScrRip [x264 - AAC3(2Ch)]
« Last post by Mr. X on December 16, 2017, 04:00:37 PM »
Aksar 2 - 1CD - Pre DvDScrRip
[x264 - AAC3(2Ch)] 








Code: You are not allowed to view links. Register or Login
General
Format                                   : Matroska
Format version                           : Version 2
File size                                : 700 MiB
Duration                                 : 2 h 12 min

Video
ID                                       : 1
Format                                   : AVC
Format/Info                              : Advanced Video Codec
Format profile                           : [email protected]
Format settings                          : CABAC / 4 Ref Frames
Format settings, CABAC                   : Yes
Format settings, RefFrames               : 4 frames
Codec ID                                 : V_MPEG4/ISO/AVC
Duration                                 : 2 h 12 min
Bit rate                                 : 607 kb/s
Width                                    : 640 pixels
Height                                   : 272 pixels
Display aspect ratio                     : 2.35:1
Frame rate mode                          : Constant
Frame rate                               : 25.000 FPS
Color space                              : YUV
Chroma subsampling                       : 4:2:0
Bit depth                                : 8 bits
Scan type                                : Progressive
Bits/(Pixel*Frame)                       : 0.139
Stream size                              : 576 MiB (82%)

Audio
ID                                       : 2
Format                                   : AAC
Format/Info                              : Advanced Audio Codec
Format profile                           : LC
Codec ID                                 : A_AAC-2
Duration                                 : 2 h 12 min
Bit rate                                 : 128 kb/s
Channel(s)                               : 2 channels
Channel positions                        : Front: L R
Sampling rate                            : 48.0 kHz
Stream size                              : 122 MiB (17%)

Thumbnail






You are not allowed to view links. Register or Login
You are not allowed to view links. Register or Login
You are not allowed to view links. Register or Login

9
:title:
Okka Ammayi Thappa (2016) 720p UNCUT HDRip x264 [Dual Audio] [Hindi DD 2.0 - Telugu DD 5.1]

Exclusive By -=!Dr.STAR!=-

Asli Fighter !!!


[-=!Dr.STAR!=-]

Perfect Synchronization at its Best - Brought to you By STAR...... Doctor STAR  :hukka:

STAR Release Exclusively By STAR Uploader Doctor STAR  :smoke:



 :imdb:

Quote
You are not allowed to view links. Register or Login

 :plot:
Quote
In an attempt to free their jailed terrorist boss Aslam, a group of terrorists plant a bomb on a flyover in Hyderabad. As fate has it, Krishna Vachan and Mango are caught in the chaos and unwittingly become a part of the terrorists' plan.

:info:
---Movie Details---
Quote

General
Format : Matroska
Format version : Version 4 / Version 2
File size : 1.49 GiB
Duration : 2h 12mn
Overall bit rate : 1 610 Kbps

Video
ID : 1
Format : AVC
Format/Info : Advanced Video Codec
Codec ID : V_MPEG4/ISO/AVC
Duration : 2h 12mn
Bit rate : 1 256 Kbps
Width : 1 272 pixels
Height : 536 pixels
Display aspect ratio : 2.40:1
Frame rate mode : Constant
Frame rate : 25.000 fps
Title : -=!Dr.STAR!=-
Writing library : x264 core 152 r2851 ba24899

Audio #1
ID : 2
Format : AC-3
Format profile : Dolby Digital
Codec ID : A_AC3
Duration : 2h 12mn
Bit rate mode : Constant
Bit rate : 192 Kbps
Channel(s) : 2 channels
Channel positions : Front: L R
Sampling rate : 48.0 KHz
Title : -=!Dr.STAR!=-
Language : Hindi

Audio #2
ID : 3
Format : AC-3
Format/Info : Audio Coding 3
Codec ID : A_AC3
Duration : 2h 12mn
Bit rate mode : Constant
Bit rate : 160 Kbps
Channel(s) : 6 channels
Channel positions : Front: L C R, Side: L R, LFE
Sampling rate : 44.1 KHz
Title : -=!Dr.STAR!=-
Language : Telugu 

::::ScreenShots::::


 :ss:

You are not allowed to view links. Register or Login You are not allowed to view links. Register or Login You are not allowed to view links. Register or Login You are not allowed to view links. Register or Login You are not allowed to view links. Register or Login You are not allowed to view links. Register or Login You are not allowed to view links. Register or Login You are not allowed to view links. Register or Login You are not allowed to view links. Register or Login You are not allowed to view links. Register or Login You are not allowed to view links. Register or Login You are not allowed to view links. Register or Login You are not allowed to view links. Register or Login You are not allowed to view links. Register or Login You are not allowed to view links. Register or Login You are not allowed to view links. Register or Login You are not allowed to view links. Register or Login You are not allowed to view links. Register or Login You are not allowed to view links. Register or Login You are not allowed to view links. Register or Login You are not allowed to view links. Register or Login You are not allowed to view links. Register or Login You are not allowed to view links. Register or Login You are not allowed to view links. Register or Login You are not allowed to view links. Register or Login You are not allowed to view links. Register or Login You are not allowed to view links. Register or Login You are not allowed to view links. Register or Login You are not allowed to view links. Register or Login You are not allowed to view links. Register or Login

:download:

Quote

Sample Link

You are not allowed to view links. Register or Login

Movie Links Exclusive @ SSX By -=!Dr.STAR!=-

You are not allowed to view links. Register or Login

:note:
Quote
Uploader's Note

It's Time for Telugu Action-Romantic-Drama Movie in Perfect Sync and UNCUT Hindi Audio... (It's Indian Dubbed Original Audio)
STAR Release as 720p UNCUT HDRip Dual Audio with Absolutely Lip to Lip Sync By -=!Dr.STAR!=-
Hindi Audio - RKD Digital, Video - TamilMV.. Million Thanx !!!
Plz Note - Telugu audio is added in between Hindi Audio to make perfect sync...
As No English subtitles were available, not included...
Perfect Sync Credits to The STAR Releaser -=!Dr.STAR!=-
 :thank: for Visit :hukka:
Just leave Only 1 Valuable Comment - I will Reply with more STAR Movies.... SO KEEP COMMENTING  :hats:

Respect to Sharespark and Staff and Members - For providing me Platform and Support  :drinks:
10
High Resolution Movies / Ittefaq (2017) 1GB - 720p - HDRip - x264 - AAC 5.1-TeamHHD
« Last post by wroser on December 15, 2017, 09:40:32 PM »




Code: You are not allowed to view links. Register or Login
General
Format                                   : Matroska
Format version                           : Version 4 / Version 2
File size                                : 901 MiB
Duration                                 : 1 h 45 min
Overall bit rate                         : 1 194 kb/s
Movie name                               : [email protected]

Video
Format                                   : AVC
Format/Info                              : Advanced Video Codec
Format profile                           : [email protected]
Format settings, CABAC                   : Yes
Format settings, RefFrames               : 8 frames
Codec ID                                 : V_MPEG4/ISO/AVC
Duration                                 : 1 h 45 min
Bit rate                                 : 1 000 kb/s
Width                                    : 1 280 pixels
Height                                   : 536 pixels
Display aspect ratio                     : 2.40:1
Frame rate mode                          : Constant
Frame rate                               : 24.000 FPS
Color space                              : YUV
Chroma subsampling                       : 4:2:0
Bit depth                                : 8 bits
Scan type                                : Progressive
Bits/(Pixel*Frame)                       : 0.061
Stream size                              : 755 MiB (84%)
Title                                    : [email protected]

Audio
Format                                   : AAC
Format/Info                              : Advanced Audio Codec
Format profile                           : LC
Codec ID                                 : A_AAC
Duration                                 : 1 h 45 min
Bit rate                                 : 192 kb/s
Channel(s)                               : 6 channels
Channel positions                        : Front: L C R, Side: L R, LFE
Sampling rate                            : 48.0 kHz
Frame rate                               : 46.875 FPS (1024 SPF)
Compression mode                         : Lossy
Delay relative to video                  : -21 ms
Stream size                              : 144 MiB (16%)
Title                                    : [email protected]
Language                                 : Hindi
Default                                  : Yes














 SINGLE DIRECT FAST LINKS

Code: You are not allowed to view links. Register or Login
http://www.heroupload.com/ccc5fd8c63a569f8/Ittefaq.2017.Hindi.720p.HDRip.x264.AAC.5.1-HHD.mkv
Pages: [1] 2 3 ... 10